Loading...
Error

Храбрые перцем / Your Highness (Дэвид Гордон Грин / David Gordon Green) [2011 г., фэнтези, комедия, приключения, BDRip] DUB + Sub (Rus, Ukr)

Статистика раздачи
Размер:  1,46 GB   |    Зарегистрирован:  3 года 2 месяца   |    Скачан:  21 раз

Полного источника не было: 11 дней

Сидов:  0  |  0 KB/s  ]   Личеров:  0  |  0 KB/s  ]

* - сиды/пиры с внешних источников

   
 
Автор Сообщение

Печаль'ka Пол:Жен

24-Сен-2013 12:40

Храбрые перцем / Your Highness


Год выпуска: 2011
Страна: США
Киностудия: Stuber Productions, Universal Pictures
Жанр: фэнтези, комедия, приключения
Продолжительность: 01:42:27

Перевод: Профессиональный (дублированный)
Cубтитры: русский (forsed), украинский
Оригинальная аудиодорожка: нет

Режиссер: Дэвид Гордон Грин / David Gordon Green

В ролях:
Дэнни МакБрайд, Джеймс Франко, Расмус Хардайкер, Натали Портман, Тоби Джонс, Джастин Теру, Зои Дешанель, Чарльз Дэнс, Дамиан Льюис, Саймон Фарнэби...

Описание:
Ленивый принц Тадеуш свыкся развлекаться и бегать за служанками, пока его старший брат Фабио подсоблял отцу вести дела королевства. Но после того, как лютый колдун украл нареченную Фабио, Беладонну, Тадеушу довелось примкнуть к отряду, который обязан вызволить принцессу. Впереди — странствование через неистовые земли, встречи с чудовищами и девицей - воительницей Изабеллой, у которой свои счеты с колдуном.

Бюджет: $49 900 000

Исходник Blu-Ray
Тип релиза: BDRip-AVC
Контейнер: MKV

Видео: 1040x432 (2.35:1), 23.976 fps, H264 ~ 1657 kbps avg, 0.154 bit/pixel
Аудио: Русский, 48 kHz, AC-3, 6 ch, 384 Кбит/сек Constant
Формат субтитров: SoftSub (srt)

Раздача от: Youtracker
Общее
Полное имя : Hrabrye.pertsem.2011.D.BDRip-AVC.1.46GB.mkv
Формат : Matroska
Версия формата : Version 2
Размер файла : 1,46 Гбайт
Продолжительность : 1 ч. 42 м.
Общий поток : 2042 Кбит/сек
Название фильма : Храбрые перцем
Дата кодирования : UTC 2011-09-03 00:19:46
Программа кодирования : mkvmerge v4.1.1 ('Bouncin' Back') сборка от Jul 3 2010 22:54:08
Библиотека кодирования : libebml v1.0.0 + libmatroska v1.0.0

Видео
Идентификатор : 1
Формат : AVC
Формат/Информация : Advanced Video Codec
Профиль формата : High@L4.1
Параметр CABAC формата : Да
Параметр ReFrames формата : 11 кадров
Идентификатор кодека : V_MPEG4/ISO/AVC
Продолжительность : 1 ч. 42 м.
Битрейт : 1657 Кбит/сек
Ширина : 1040 пикс.
Высота : 432 пикс.
Соотношение сторон : 2,40:1
Частота кадров : 23,976 кадр/сек
Цветовое пространство : YUV
Подвыборка цветности : 4:2:0
Битовая глубина : 8 бит
Тип развёртки : Прогрессивная
Бит/(Пиксели*Кадры) : 0.154
Размер потока : 1,16 Гбайт (79%)
Заголовок : Исходник видео: Blu-Ray
Библиотека кодирования : x264 core 114 r1913 5fd3dce
Настройки программы : cabac=1 / ref=11 / deblock=1:-2:-1 / analyse=0x3:0x113 / me=umh / subme=9 / psy=1 / psy_rd=1.00:0.10 / mixed_ref=1 / me_range=32 / chroma_me=1 / trellis=2 / 8x8dct=1 / cqm=0 / deadzone=21,11 / fast_pskip=1 / chroma_qp_offset=-3 / threads=9 / sliced_threads=0 / nr=0 / decimate=1 / interlaced=0 / constrained_intra=0 / bframes=10 / b_pyramid=2 / b_adapt=2 / b_bias=0 / direct=3 / weightb=1 / open_gop=0 / weightp=0 / keyint=250 / keyint_min=23 / scenecut=40 / intra_refresh=0 / rc_lookahead=60 / rc=2pass / mbtree=1 / bitrate=1657 / ratetol=1.0 / qcomp=0.60 / qpmin=0 / qpmax=69 / qpstep=4 / cplxblur=20.0 / qblur=0.5 / ip_ratio=1.40 / aq=2:0.90
Язык : English

Аудио
Идентификатор : 2
Формат : AC-3
Формат/Информация : Audio Coding 3
Расширение режима : CM (complete main)
Идентификатор кодека : A_AC3
Продолжительность : 1 ч. 42 м.
Вид битрейта : Постоянный
Битрейт : 384 Кбит/сек
Каналы : 6 каналов
Расположение каналов : Front: L C R, Side: L R, LFE
Частота : 48,0 КГц
Битовая глубина : 16 бит
Метод сжатия : С потерями
Размер потока : 281 Мбайт (19%)
Заголовок : 48 kHz, AC-3, 6 ch
Язык : Russian

Текст #1
Идентификатор : 3
Формат : UTF-8
Идентификатор кодека : S_TEXT/UTF8
Идентификатор кодека/Информация : UTF-8 Plain Text
Язык : Russian

Текст #2
Идентификатор : 4
Формат : UTF-8
Идентификатор кодека : S_TEXT/UTF8
Идентификатор кодека/Информация : UTF-8 Plain Text
Язык : Ukrainian

Меню
00:00:00.000 : ru:
00:05:00.000 : :
00:10:00.000 : :
00:15:00.000 : :
00:20:00.000 : :
00:25:00.000 : :
00:30:00.000 : :
00:35:00.000 : :
00:40:00.000 : :
00:45:00.000 : :
00:50:00.000 : :
00:55:00.000 : :
01:00:00.000 : :
01:05:00.000 : :
01:10:00.000 : :
01:15:00.000 : :
01:20:00.000 : :
01:25:00.000 : :
01:30:00.000 : :
01:35:00.000 : :
01:40:00.000 : :
pic pic pic pic
Для увеличения картинки щелкните мышкой по превью

Этот торрент недоступен для скачивания без регистрации, однако доступен по публичной magnet-ссылке (источники с публичных трекеров). Перед использованием ссылки прочтите, пожалуйста Пользовательское соглашение, а также как можно дольше оставайтесь на раздаче! Для того, чтобы скачать сам торрент-файл (который видит больше источников), а также для того, чтобы поблагодарить релизера, вам необходимо зарегистрироваться. Если регистрироваться лень - вы можете также попробовать скачать релиз по нашим партнерским ссылкам ниже.

[underverse.su].t31237.torrent
Трекер: Зарегистрирован   [ 24.09.2013 12:40 ]  

Статус: проверено (by Печаль'ka at 24.09.2013 12:40)
Поблагодарили: пока никто не поблагодарил...
Тип торрента: публичный - доступные источники с открытых трекеров: 
Размер: 1,46 GB (занимает 0,33 DVDR, для записи нужно 1 болванка DVDR/RW)
 
 
Похожие темы
Форум Тема Автор Торрент Отв. Посл. сооб.
Зарубежное кино [DVDRip, Low-Res HDRip, и т.д.] Храбрые перцем / Your Highness (Дэвид Гордон Грин) [2011 г., фэнтези, комедия, приключения, BDRip] RG NewCinema
0 | 0

2 | 456

4

05.10.2011 07:57

Зарубежное кино [DVDRip, Low-Res HDRip, и т.д.] Храбрые перцем / Your Highness (Дэвид Гордон Грин) [2011 г., фэнтези, комедия, приключения, HDRip] Dub 90ytr90
7 | 2

0 | 391

19

23.12.2012 08:52

Зарубежное кино [DVDRip, Low-Res HDRip, и т.д.] Храбрые перцем / Your Highness (Дэвид Гордон Грин) [2011 г., фэнтези, комедия, приключения, HDRip-AVC] Dub + Original 90ytr90
2 | 0

0 | 271

3

23.12.2012 16:54

gard33 Пол:Муж

28-Сен-2013 05:08

:Yahoo!: классный фильмец!!! :P

Яндекс.Метрика powered by Sphinx


В Н И М А Н И Е
Сайт не распространяет и не хранит электронные версии произведений, а лишь бесплатно и без коммерческой выгоды (не требуя взамен платы,
SMS и т.д.) предоставляет доступ к создаваемому пользователями каталогу ссылок на торрент-файлы, которые содержат только списки хеш-сумм.
Убедительная просьба с жалобами обращаться напрямую к пользователю, разместившему торрент файл.

Вверх