Loading...
Error

Классная школа / Серии 1-13 из 70 (Яков Плоткин, Екатерина Корабельник, Дарья Карасева) [2013 г., комедия, SATRip]

Статистика раздачи
Размер:  3,62 GB   |    Зарегистрирован:  3 года 2 месяца   |    Скачан:  4 раза

Полного источника не было: 3 года

Сидов:  0  |  0 KB/s  ]   Личеров:  0  |  0 KB/s  ]

* - сиды/пиры с внешних источников

   
 
Автор Сообщение

geo539 Пол:Муж

23-Сен-2013 16:29

Классная школа


Год выпуска: 2013
Жанр: комедия
Серии: 1-13 (70)
Страна: Россия
Режиссер: Яков Плоткин, Екатерина Корабельник, Дарья Карасева
В ролях: Петр Винс Алёна Галлиардт Павел Кабанов Михаил Богдасаров Ольга Николаева Иван Орлов Роман Хан Денис Ясик Руслан Щедрин Анастасия Завитухина
Сюжет фильма:
«Классная школа» — динамичное скетч-шоу для школьников разного возраста, а также их родителей. Каждый выпуск — это один день из жизни школы. Место действия — обычная-необычная школа. Обычная потому, что все ситуации и герои знакомы каждому школьнику. Необычная — в ней преподают не совсем обычные преподаватели, которые максимально изобретательно подходят к своим предметам.



Продолжительность: 00:26:02 x 13 серий
Качество видео: SatRip
Формат: avi
Видео: XviD, 720x384, 1499 kbps
Аудио: , оригинал, AC3 2.0, 192 kbps

Код:

General
Complete name                    : Классная.школа.2013.XviD.SATRip.Thunder\01. Прививки.avi
Format                           : AVI
Format/Info                      : Audio Video Interleave
File size                        : 317 MiB
Duration                         : 26mn 2s
Overall bit rate                 : 1 702 Kbps
Director                         : SATRip by Thunder
Genre                            : Comedy
Writing application              : VirtualDubMod 1.5.10.3 | www.virtualdub-fr.org || (build 2550/release)

Video
ID                               : 0
Format                           : MPEG-4 Visual
Format profile                   : Streaming Video@L1
Format settings, BVOP            : Yes
Format settings, QPel            : No
Format settings, GMC             : No warppoints
Format settings, Matrix          : Default (H.263)
Codec ID                         : XVID
Codec ID/Hint                    : XviD
Duration                         : 26mn 2s
Bit rate                         : 1 500 Kbps
Width                            : 720 pixels
Height                           : 384 pixels
Display aspect ratio             : 1.875
Frame rate                       : 25.000 fps
Resolution                       : 24 bits
Colorimetry                      : 4:2:0
Scan type                        : Progressive
Bits/(Pixel*Frame)               : 0.217
Stream size                      : 279 MiB (88%)
Writing library                  : XviD 1.2.1 (UTC 2008-12-04)

Audio
ID                               : 1
Format                           : AC-3
Format/Info                      : Audio Coding 3
Codec ID                         : 2000
Duration                         : 26mn 2s
Bit rate mode                    : Constant
Bit rate                         : 192 Kbps
Channel(s)                       : 2 channels
Channel positions                : L R
Sampling rate                    : 48.0 KHz
Stream size                      : 35.8 MiB (11%)
Alignment                        : Split accross interleaves
Interleave, duration             : 40 ms (1.00 video frame)
Interleave, preload duration     : 500 ms

picpicpicpic
Для увеличения картинки щелкните мышкой по превью

Этот торрент недоступен для скачивания без регистрации, однако доступен по публичной magnet-ссылке (источники с публичных трекеров). Перед использованием ссылки прочтите, пожалуйста Пользовательское соглашение, а также как можно дольше оставайтесь на раздаче! Для того, чтобы скачать сам торрент-файл (который видит больше источников), а также для того, чтобы поблагодарить релизера, вам необходимо зарегистрироваться. Если регистрироваться лень - вы можете также попробовать скачать релиз по нашим партнерским ссылкам ниже.

[underverse.su].t31205.torrent
Трекер: Зарегистрирован   [ 23.09.2013 16:29 ]  

Статус: проверено (by Паукан at 23.09.2013 17:19)
Поблагодарили: 1 человек
Тип торрента: публичный - доступные источники с открытых трекеров: 
Размер: 3,62 GB (занимает 0,83 DVDR, для записи нужно 1 болванка DVDR/RW)
 
 


Последний раз редактировалось: geo539 (23.09.2013 17:02), всего редактировалось 2 раз(а)

Чертёнок Пол:Муж

23-Сен-2013 16:37

Качество? Скрины должны быть с раздоваемого матерьяла!Вчера же тебе писали.

geo539 Пол:Муж

23-Сен-2013 16:41

Чертёнок писал(а):

Качество? Скрины должны быть с раздоваемого матерьяла!Вчера же тебе писали.
Нет возможности сделать скрины с раздаваемого материала, вся информация о качестве видео выложил через UV-info.
По поводу скринов, постараюсь сделать их, но не уверен в результате.

Чертёнок Пол:Муж

23-Сен-2013 16:44

Так делай скрины плеером блин! Качество есть от куда качал!

geo539 Пол:Муж

23-Сен-2013 16:48

Чертёнок писал(а):

Так делай скрины плеером блин! Качество есть от куда качал!
Качество SATRip, в медиаинфо об этом написано. Добавил скрины с раздачи, сейчас с плеера по возможности добавлю.

Чертёнок Пол:Муж

23-Сен-2013 16:50

Скрины должны быть 720x384

geo539 Пол:Муж

23-Сен-2013 16:53

Чертёнок писал(а):

Скрины должны быть 720x384
Скрины только такие на раздаче были. Сейчас делаю сам скрины и залью 720x384

geo539 Пол:Муж

23-Сен-2013 17:03

Чертёнок
Перезалил скрины с раздачи до требуемых форматов, с кинопоиска скрины оставил.

Паукан Пол:Муж

23-Сен-2013 17:18

geo539 писал(а):

с кинопоиска скрины оставил.
На будущее - они не нужны, поскольку не несут информации полезной. Поправил сам на первый раз, на будущее просьба брать пример с этого релиза

Чертёнок Пол:Муж

23-Сен-2013 17:20

Я тоже исправлял :ROFL:

Паукан писал(а):

geo539 писал(а):

с кинопоиска скрины оставил.
На будущее - они не нужны, поскольку не несут информации полезной. Поправил сам на первый раз, на будущее просьба брать пример с этого релиза

Яндекс.Метрика powered by Sphinx


В Н И М А Н И Е
Сайт не распространяет и не хранит электронные версии произведений, а лишь бесплатно и без коммерческой выгоды (не требуя взамен платы,
SMS и т.д.) предоставляет доступ к создаваемому пользователями каталогу ссылок на торрент-файлы, которые содержат только списки хеш-сумм.
Убедительная просьба с жалобами обращаться напрямую к пользователю, разместившему торрент файл.

Вверх