Loading...
Error

Армия Франкенштейна / Frankenstein's Army (Ришард Раапхорст) [2013 г., ужасы, фантастика, боевик, BDRip-AVC] VO + Original

Статистика раздачи
Размер:  2,22 GB   |    Зарегистрирован:  3 года 2 месяца   |    Скачан:  21 раз

Полного источника не было: 9 месяцев

Сидов:  0  |  0 KB/s  ]   Личеров:  0  |  0 KB/s  ]

* - сиды/пиры с внешних источников

   
 
Автор Сообщение

Чертёнок Пол:Муж

22-Сен-2013 17:57

Армия Франкенштейна / Frankenstein's Army


Информация о фильме
Название: Армия Франкенштейна
Оригинальное название: Frankenstein's Army
Год выхода: 2013
Жанр: Ужасы, фантастика, боевик
Режиссер: Ришард Раапхорст
В ролях: Карел Роден, Джошуа Зассе, Роберт Гвилим, Александр Меркюри, Люк Ньюберри, Хон Пинг Тэнг, Андрей Заяц, Марк Стивенсон., Кристина Каталина

О фильме:
Конец Великой Отечественной войны. Русские солдаты уже ступают по территории Германии. Случайно они находят тайную нацистскую лабораторию, в которой по записям доктора Франкенштейна гитлеровцы вовсю экспериментировали с мертвой и живой плотью и создавали армию суперсолдат — последняя и отчаяная попытка Гитлера избежать поражения в войне…



Страна: Нидерланды, США, Чехия
Студия: Dark Sky Films
Продолжительность: 01:24:03
Перевод: Любительский одноголосый

Файл
Кодек: x264
Качество: BDRip-AVC
Видео: MPEG-4 AVC, 3150 Кбит/с, 1024x576, 23.976 кадр/с
Звук:
1. Русский (АС3, 2 ch, 192 Кбит/с) / Любительский одноголосый (Вадим Белов)
2. Английский (АС3, 6 ch, 448 Кбит/с)
Субтитры: Английские

Семпл
Общее
Уникальный идентификатор : 227296267461770639662717541775280353293 (0xAAFFAB34DA1C4028B5853067BB0EB00D)
Полное имя : Armiya.Frankenshteina.2013.x264.BDRip(AVC)-MediaClub.mkv
Формат : Matroska
Версия формата : Version 2
Размер файла : 2,22 Гбайт
Продолжительность : 1 ч. 24 м.
Общий поток : 3788 Кбит/сек
Название фильма : Release - MediaClub Rip by == vvmon ==
Дата кодирования : UTC 2013-09-21 16:44:41
Программа кодирования : mkvmerge v5.4.0 ('Piper') built on Mar 10 2012 13:34:39
Библиотека кодирования : libebml v1.2.3 + libmatroska v1.3.0

Видео
Идентификатор : 1
Формат : AVC
Формат/Информация : Advanced Video Codec
Профиль формата : High@L4.1
Параметр CABAC формата : Да
Параметр ReFrames формата : 8 кадров
Идентификатор кодека : V_MPEG4/ISO/AVC
Продолжительность : 1 ч. 24 м.
Битрейт : 3150 Кбит/сек
Ширина : 1024 пикселя
Высота : 576 пикселей
Соотношение сторон : 16:9
Режим частоты кадров : Постоянный
Частота кадров : 23,976 кадра/сек
Цветовое пространство : YUV
Субдискретизация насыщенности : 4:2:0
Битовая глубина : 8 бит
Тип развёртки : Прогрессивная
Бит/(Пиксели*Кадры) : 0.223
Размер потока : 1,80 Гбайт (81%)
Заголовок : Armiya.Frankenshteina.2013.x264.BDRip(AVC)-MediaClub.mkv
Библиотека кодирования : x264 core 133 r2334 a3ac64b
Настройки программы : cabac=1 / ref=8 / deblock=1:-2:-2 / analyse=0x3:0x133 / me=umh / subme=11 / psy=1 / psy_rd=1.00:0.00 / mixed_ref=1 / me_range=48 / chroma_me=1 / trellis=2 / 8x8dct=1 / cqm=0 / deadzone=21,11 / fast_pskip=0 / chroma_qp_offset=-2 / threads=3 / lookahead_threads=1 / sliced_threads=0 / nr=0 / decimate=0 / interlaced=0 / bluray_compat=0 / constrained_intra=0 / bframes=8 / b_pyramid=2 / b_adapt=2 / b_bias=0 / direct=3 / weightb=1 / open_gop=0 / weightp=2 / keyint=240 / keyint_min=23 / scenecut=40 / intra_refresh=0 / rc=2pass / mbtree=0 / bitrate=3150 / ratetol=1.0 / qcomp=0.60 / qpmin=10 / qpmax=51 / qpstep=4 / cplxblur=20.0 / qblur=0.5 / ip_ratio=1.40 / pb_ratio=1.30 / aq=2:1.00
Язык : English
Default : Да
Forced : Нет

Аудио #1
Идентификатор : 2
Формат : AC-3
Формат/Информация : Audio Coding 3
Расширение режима : CM (complete main)
Параметр Endianness формата : Big
Идентификатор кодека : A_AC3
Продолжительность : 1 ч. 24 м.
Вид битрейта : Постоянный
Битрейт : 192 Кбит/сек
Каналы : 2 канала
Расположение каналов : Front: L R
Частота : 48,0 КГц
Битовая глубина : 16 бит
Метод сжатия : С потерями
Размер потока : 115 Мбайт (5%)
Заголовок : Любительский одноголосый (Вадим Белов)
Язык : Russian
Default : Да
Forced : Нет

Аудио #2
Идентификатор : 3
Формат : AC-3
Формат/Информация : Audio Coding 3
Расширение режима : CM (complete main)
Параметр Endianness формата : Big
Идентификатор кодека : A_AC3
Продолжительность : 1 ч. 24 м.
Вид битрейта : Постоянный
Битрейт : 448 Кбит/сек
Каналы : 6 каналов
Расположение каналов : Front: L C R, Side: L R, LFE
Частота : 48,0 КГц
Битовая глубина : 16 бит
Метод сжатия : С потерями
Размер потока : 269 Мбайт (12%)
Заголовок : Английский
Язык : English
Default : Нет
Forced : Нет

Текст
Идентификатор : 4
Формат : UTF-8
Идентификатор кодека : S_TEXT/UTF8
Идентификатор кодека/Информация : UTF-8 Plain Text
Заголовок : Английские
Язык : English
Default : Да
Forced : Нет

Меню
00:00:00.000 : en:00:00:00.000
00:06:24.884 : en:00:06:24.884
00:11:14.674 : en:00:11:14.674
00:15:03.486 : en:00:15:03.486
00:22:26.387 : en:00:22:26.387
00:25:11.135 : en:00:25:11.135
00:29:17.172 : en:00:29:17.172
00:35:41.848 : en:00:35:41.848
00:41:46.671 : en:00:41:46.671
00:46:48.389 : en:00:46:48.389
00:51:20.369 : en:00:51:20.369
00:54:35.981 : en:00:54:35.981
01:01:58.423 : en:01:01:58.423
01:04:41.294 : en:01:04:41.294
01:09:29.999 : en:01:09:29.999
01:14:15.868 : en:01:14:15.868
01:20:19.356 : en:01:20:19.356
---[Information] [21.09.2013 17:17:32] x264 [info]: frame I:558 Avg QP:16.20 size: 70109
---[Information] [21.09.2013 17:17:32] x264 [info]: frame P:28142 Avg QP:18.81 size: 31294
---[Information] [21.09.2013 17:17:32] x264 [info]: frame B:92212 Avg QP:20.62 size: 11533
• Сохранены оригинальные чаптеры как на Blu-ray
picpicpicpicpicpic
Для увеличения картинки щелкните мышкой по превью

Этот торрент недоступен для скачивания без регистрации, однако доступен по публичной magnet-ссылке (источники с публичных трекеров). Перед использованием ссылки прочтите, пожалуйста Пользовательское соглашение, а также как можно дольше оставайтесь на раздаче! Для того, чтобы скачать сам торрент-файл (который видит больше источников), а также для того, чтобы поблагодарить релизера, вам необходимо зарегистрироваться. Если регистрироваться лень - вы можете также попробовать скачать релиз по нашим партнерским ссылкам ниже.

[underverse.su].t31157.torrent
Трекер: Зарегистрирован   [ 22.09.2013 17:57 ]  

Статус: проверено (by Чертёнок at 22.09.2013 17:58)
Поблагодарили: 1 человек
Тип торрента: публичный - доступные источники с открытых трекеров: 
Размер: 2,22 GB (занимает 0,51 DVDR, для записи нужно 1 болванка DVDR/RW)
 
 
Похожие темы
Форум Тема Автор Торрент Отв. Посл. сооб.
Зарубежное кино [DVDRip, Low-Res HDRip, и т.д.] Армия Франкенштейна / Frankenstein's Army (Richard Raaphorst) [2013 г., ужасы, боевик, WEB-DLRip] VO + Original 90ytr90
14 | 0

1 | 817

35

08.08.2013 14:22


Яндекс.Метрика powered by Sphinx


В Н И М А Н И Е
Сайт не распространяет и не хранит электронные версии произведений, а лишь бесплатно и без коммерческой выгоды (не требуя взамен платы,
SMS и т.д.) предоставляет доступ к создаваемому пользователями каталогу ссылок на торрент-файлы, которые содержат только списки хеш-сумм.
Убедительная просьба с жалобами обращаться напрямую к пользователю, разместившему торрент файл.

Вверх