Loading...
Error

Дельта (Рыбнадзор) / Серии 1-24 (24) ( Сергей Лялин, Сергей Виноградов ) [2013 г., Боевик, криминал, драма, SatRip]

Статистика раздачи
Размер:  12,57 GB   |    Зарегистрирован:  3 года 2 месяца   |    Скачан:  17 раз
Сидов:  1  |  80 KB/s  ]   Личеров:  0  |  0 KB/s  ]

* - сиды/пиры с внешних источников

   
 
Автор Сообщение

nemos Пол:Муж

20-Сен-2013 15:52

Дельта (Рыбнадзор)


Год выпуска: 2013
Жанр: Боевик, криминал, драма
Страна: Россия
Режиссер: Сергей Лялин, Сергей Виноградов
В ролях: Вадим Колганов, Анна Казючиц, Сергей Цепов, Степан Абрамов, Сергей Селин, Александр Баширов, Александр Тютин, Денис Карасёв, Мария Хижняк, Геннадий Матвеев, Сергей Селин
Сюжет фильма:
Андрей Бекетов приехал в дельту Волги отдохнуть и навестить своего друга Сергея Лобанова, работающего инспектором рыбоохраны. Когда-то они вместе служили в спецназе, потом Лобанов вернулся в родную деревню, а Бекетов ушел на работу в городскую полицию, но был оттуда уволен за излишнюю принципиальность...


Качество видео: SatRip

Продолжительность: 00:46:37 серия
Формат: AVI
Видео: DivX, 720x416, 1500 kbps
Аудио: русский, MP3 2.0, 128 kbps

Код:

D:\Фильмы (роздача)\Deljta.24.2013.SATRip\Deljta.10.2013.SATRip.avi
   General
      Complete name : D:\Фильмы (роздача)\Deljta.24.2013.SATRip\Deljta.10.2013.SATRip.avi
      Format : AVI
      Format/Info : Audio Video Interleave
      File size : 546 MiB
      Duration : 46mn 37s
      Overall bit rate : 1 638 Kbps
   Video #0
      ID : 0
      Format : MPEG-4 Visual
      Format settings, BVOP : 1
      Format settings, QPel : No
      Format settings, GMC : No warppoints
      Format settings, Matrix : Default (H.263)
      Muxing mode : Packed bitstream
      Codec ID : DX50
      Codec ID/Hint : DivX 5
      Duration : 46mn 37s
      Bit rate : 1 500 Kbps
      Width : 720 pixels
      Height : 416 pixels
      Display aspect ratio : 1.731
      Frame rate : 25.000 fps
      Color space : YUV
      Chroma subsampling : 4:2:0
      Bit depth : 8 bits
      Scan type : Progressive
      Compression mode : Lossy
      Bits/(Pixel*Frame) : 0.200
      Stream size : 500 MiB (92%)
      Title : Video
      Writing library : DivX 3013
   Audio #1
      ID : 1
      Format : MPEG Audio
      Format version : Version 1
      Format profile : Layer 3
      Codec ID : 55
      Codec ID/Hint : MP3
      Duration : 46mn 37s
      Bit rate mode : Constant
      Bit rate : 128 Kbps
      Channel(s) : 2 channels
      Sampling rate : 48.0 KHz
      Compression mode : Lossy
      Stream size : 42.7 MiB (8%)
      Alignment : Split accross interleaves
      Interleave, duration : 40 ms (1.00 video frame)
      Interleave, preload duration : 500 ms
      Title : Audio
Семпл: http://multi-up.com/905146

picpicpicpicpicpicpicpicpicpicpicpicpicpicpicpicpicpicpicpic
Для увеличения картинки щелкните мышкой по превью

Этот торрент недоступен для скачивания без регистрации, однако доступен по публичной magnet-ссылке (источники с публичных трекеров). Перед использованием ссылки прочтите, пожалуйста Пользовательское соглашение, а также как можно дольше оставайтесь на раздаче! Для того, чтобы скачать сам торрент-файл (который видит больше источников), а также для того, чтобы поблагодарить релизера, вам необходимо зарегистрироваться. Если регистрироваться лень - вы можете также попробовать скачать релиз по нашим партнерским ссылкам ниже.

[underverse.su].t31523.torrent
Трекер: Зарегистрирован   [ 02.10.2013 17:07 ]  

Статус: проверено (by 90ytr90 at 02.10.2013 17:10)
Поблагодарили: 1 человек
Тип торрента: публичный - доступные источники с открытых трекеров: 
Размер: 12,57 GB (занимает 2,87 DVDR, для записи нужно 3 болванки DVDR/RW)
 
 


Последний раз редактировалось: nemos (06.11.2014 09:41), всего редактировалось 8 раз(а)

nemos Пол:Муж

20-Сен-2013 16:10

:good:

nemos Пол:Муж

23-Сен-2013 15:17

Торент обновлён, добавлены серии : 23-24

Яндекс.Метрика powered by Sphinx


В Н И М А Н И Е
Сайт не распространяет и не хранит электронные версии произведений, а лишь бесплатно и без коммерческой выгоды (не требуя взамен платы,
SMS и т.д.) предоставляет доступ к создаваемому пользователями каталогу ссылок на торрент-файлы, которые содержат только списки хеш-сумм.
Убедительная просьба с жалобами обращаться напрямую к пользователю, разместившему торрент файл.

Вверх