Loading...
Error

Война миров Z / World War Z (Марк Форстер) [2013 г., ужасы, фантастика, боевик, триллер, драма, BDRip] Dub + Original + Sub (Eng) HQ Underverse

Статистика раздачи
Размер:  2,17 GB   |    Зарегистрирован:  3 года 2 месяца   |    Скачан:  161 раз

Полного источника не было: 18 часов

Сидов:  0  |  0 KB/s  ]   Личеров:  0  |  0 KB/s  ]

* - сиды/пиры с внешних источников

   
 
Автор Сообщение

HQ Underverse 

20-Сен-2013 11:42

Война миров Z / World War Z


Год выпуска: 2013
Жанр: ужасы, фантастика, боевик, триллер, драма
Страна: США , Мальта
Режиссер: Марк Форстер
В ролях: Брэд Питт, Мирей Инос, Джеймс Бэдж Дэйл, Мэттью Фокс, Даниэлла Кертеш, Луди Бокен, Фана Мокоэна, Дэвид Морc, Элайес Габел, Питер Капальди
Сюжет фильма:
Сотрудник ООН Гари Лейн наперегонки со временем пытается остановить заражение, способное полностью истребить человечество.

  • Мировая премьера: 2 июня 2013
  • Российская премьера: 27 июня 2013, «Централ Партнершип» 3D

|
Качество видео: BDRip

Продолжительность: 01:56:01
Формат: avi
Видео: XviD, 720x304, 1765 kbps
Аудио #1: русский, дублированный [лицензия], AC3 5.1, 448 kbps
Аудио #2: английский, оригинал, AC3 5.1, 448 kbps
Субтитры: внешние, SRT, английский

Код:

General
Complete name                    : Z:\windoza-share\Война миров Z\World.War.Z.2013.BDRip.XviD.AC3.Rus.D.Eng.O.HQ.Underverse.avi
Format                           : AVI
Format/Info                      : Audio Video Interleave
Format profile                   : OpenDML
File size                        : 2.17 GiB
Duration                         : 1h 56mn
Overall bit rate                 : 2 679 Kbps
Writing application              : VirtualDubMod 1.5.10.2 (build 2540/release)
Writing library                  : VirtualDubMod build 2540/release

Video
ID                               : 0
Format                           : MPEG-4 Visual
Format profile                   : Streaming Video@L1
Format settings, BVOP            : Yes
Format settings, QPel            : No
Format settings, GMC             : No warppoints
Format settings, Matrix          : Custom
Muxing mode                      : Packed bitstream
Codec ID                         : XVID
Codec ID/Hint                    : XviD
Duration                         : 1h 56mn
Bit rate                         : 1 765 Kbps
Width                            : 720 pixels
Height                           : 304 pixels
Display aspect ratio             : 2.35
Frame rate                       : 23.976 fps
Resolution                       : 24 bits
Colorimetry                      : 4:2:0
Scan type                        : Progressive
Bits/(Pixel*Frame)               : 0.336
Stream size                      : 1.43 GiB (66%)
Writing library                  : XviD 64

Audio #1
ID                               : 1
Format                           : AC-3
Format/Info                      : Audio Coding 3
Codec ID                         : 2000
Duration                         : 1h 56mn
Bit rate mode                    : Constant
Bit rate                         : 448 Kbps
Channel(s)                       : 6 channels
Channel positions                : Front: L C R, Surround: L R, LFE
Sampling rate                    : 48.0 KHz
Stream size                      : 372 MiB (17%)
Alignment                        : Split accross interleaves
Interleave, duration             : 42 ms (1.00 video frame)
Interleave, preload duration     : 500 ms

Audio #2
ID                               : 2
Format                           : AC-3
Format/Info                      : Audio Coding 3
Codec ID                         : 2000
Duration                         : 1h 56mn
Bit rate mode                    : Constant
Bit rate                         : 448 Kbps
Channel(s)                       : 6 channels
Channel positions                : Front: L C R, Surround: L R, LFE
Sampling rate                    : 48.0 KHz
Stream size                      : 372 MiB (17%)
Alignment                        : Split accross interleaves
Interleave, duration             : 42 ms (1.00 video frame)
Interleave, preload duration     : 500 ms

Релиз группы:

picpicpic
Для увеличения картинки щелкните мышкой по превью

Этот торрент недоступен для скачивания без регистрации, однако доступен по публичной magnet-ссылке (источники с публичных трекеров). Перед использованием ссылки прочтите, пожалуйста Пользовательское соглашение, а также как можно дольше оставайтесь на раздаче! Для того, чтобы скачать сам торрент-файл (который видит больше источников), а также для того, чтобы поблагодарить релизера, вам необходимо зарегистрироваться. Если регистрироваться лень - вы можете также попробовать скачать релиз по нашим партнерским ссылкам ниже.

[underverse.su].t31075.torrent
Трекер: Зарегистрирован   [ 20.09.2013 11:42 ]  

Статус: проверено (by HQ Underverse at 20.09.2013 11:42)
Поблагодарили: 7 человек
Тип торрента: публичный - доступные источники с открытых трекеров: 
Размер: 2,17 GB (занимает 1/2 DVDR, для записи нужно 1 болванка DVDR/RW)
 
 
Похожие темы
Форум Тема Автор Торрент Отв. Посл. сооб.
Зарубежное кино [DVDRip, Low-Res HDRip, и т.д.] Война миров / War of the Worlds (Стивен Спилберг) [ 2005 г., фантастика, боевик, триллер, драма, приключения, BDRip-AVC] Dub Чертёнок
0 | 0

0 | 1330

23

10.02.2013 14:41

Зарубежное кино [DVDRip, Low-Res HDRip, и т.д.] Война миров Z / World War Z (Марк Форстер / Marc Forster) [2013 г., ужасы, фантастика, боевик, триллер, драма, BDRip-AVC] VO + Original Чертёнок
46 | 1

0 | 736

35

06.09.2013 06:51

Зарубежное кино [DVDRip, Low-Res HDRip, и т.д.] Война миров Z / World War Z (Марк Форстер / Marc Forster) [2013 г., ужасы, фантастика, боевик, HDRip] VO (Andi) Чертёнок
23 | 0

0 | 3404

329

06.09.2013 06:58

Зарубежное кино [DVDRip, Low-Res HDRip, и т.д.] Война миров Z / World War Z (Марк Форстер) [2013 г., ужасы, фантастика, боевик, триллер, драма, BDRip] [Theatrical Cut] Dub + Original 90ytr90
8 | 0

1 | 1762

78

23.08.2014 17:34

Зарубежное кино [DVDRip, Low-Res HDRip, и т.д.] Война миров Z / World War Z (Марк Форстер / Marc Forster) [2013 г., ужасы, фантастика, боевик, триллер, приключения, BDRip] [Extended Cut] Dub 90ytr90
2 | 0

0 | 1531

46

29.11.2013 15:18

Зарубежное кино [DVDRip, Low-Res HDRip, и т.д.] Война миров / War of the Worlds (Стивен Спилберг / Steven Spielberg) [2005 г., фантастика, триллер, драма, приключения, HDRip] Dub + Original (Eng) + Sub (Rus, Eng) 90ytr90
5 | 0

0 | 287

4

31.01.2015 21:51

Зарубежное кино [DVDRip, Low-Res HDRip, и т.д.] Война миров / War of the Worlds (Стивен Спилберг / Steven Spielberg) [2005 г., фантастика, триллер, драма, приключения, HDRip] Dub 90ytr90
98 | 1

0 | 334

8

31.01.2015 21:52

Зарубежное кино [DVDRip, Low-Res HDRip, и т.д.] Война миров / War of the Worlds (Стивен Спилберг / Steven Spielberg) [2005 г., фантастика, триллер, драма, приключения, BDRip-AVC] Dub (С.Р.И.) + DVO (Tycoon) + AVO (А.Гаврилов) + Original (Eng)+ Sub... 90ytr90
0 | 1

0 | 779

3

31.01.2015 21:52

Зарубежное кино [HDDVDRip / BDRip / WEB-DL / HDTV 1080/720р] Война миров / War of the Worlds (Стивен Спилберг) [2005 г., фантастика, боевик, триллер, драма, приключения, BDRip 1080p] BartSimpson
5 | 0

2 | 2032

16

05.09.2013 11:24

Зарубежное кино [HDDVDRip / BDRip / WEB-DL / HDTV 1080/720р] Война миров Z / World War Z (Марк Форстер / Marc Forster) [2013 г., ужасы, фантастика, боевик, триллер, драма, BDRip 1080p] [Theatrical Cut] Dub + Original 90ytr90
18 | 1

0 | 1502

56

13.09.2013 19:58

gad640 Пол:Муж

21-Сен-2013 18:07

:evil: :evil: :evil: :evil: :x :x :x :o :o :o

90ytr90 

23-Сен-2013 17:50

gad640 писал(а):

:evil: :evil: :evil: :evil: :x :x :x :o :o :o

Правила писал(а):

2.13. Злоупотреблять использованием [тегов] форума и смайликами ....

Яндекс.Метрика powered by Sphinx


В Н И М А Н И Е
Сайт не распространяет и не хранит электронные версии произведений, а лишь бесплатно и без коммерческой выгоды (не требуя взамен платы,
SMS и т.д.) предоставляет доступ к создаваемому пользователями каталогу ссылок на торрент-файлы, которые содержат только списки хеш-сумм.
Убедительная просьба с жалобами обращаться напрямую к пользователю, разместившему торрент файл.

Вверх