Loading...
Error

Мальтийский сокол / The Maltese Falcon (Джон Хьюстон) [1941 г., фильм-нуар, криминал, детектив, HDRip-AVC] DuB + 4MVO + Original

 
Автор Сообщение

Чертёнок Пол:Муж

20-Сен-2013 10:47

Мальтийский сокол / The Maltese Falcon
Информация о фильме
Название: Мальтийский сокол
Оригинальное название: The Maltese Falcon
Год выхода: 1941
Жанр: Фильм-нуар, Криминал, Детектив
Режиссер: Джон Хьюстон /John Huston/
В ролях: Хамфри Богарт /Humphrey Bogart/, Мэри Астор /Mary Astor/, Глэдис Джордж /Gladys George/, Петер Лорре /Peter Lorre/, Бартон МакЛэйн /Barton MacLane/, Ли Патрик /Lee Patrick/, Сидни Гринстрит /Sydney Greenstreet/, Уорд Бонд /Ward Bond/, Джером Кауэн /Jerome Cowan/, Элиша Кук мл. /Elisha Cook Jr./, ...
О фильме:
Частный детектив Сэм Спэйд начинает смертельную охоту за таинственно исчезнувшей бесценной статуэткой «мальтийского сокола».
Эта реликвия пришла в современный мир из глубины веков и символизирует собою возможность управления людьми, народами, странами. Человечеством, в конце концов. Более-менее подкованному человеку известно, что миром правят секретные ордены и организации, а поэтому интерес к этой теме вечен и непререкаем.



Выпущено: США, Warner Bros. Pictures
Продолжительность: 01:40:32
Перевод: Дублированный, профессиональный многоголосый
Субтитры: Русские
Дата релиза: 20.09.2013

Файл
Кодек: H264
Качество: HDRip (AVC)
Видео: MPEG-4 AVC, 2659 Кбит/с, 788x576
Звук: Аудио 1: Русский (AC3, 1 ch, 128 Кбит/с)- професиональный многоголосый (Фортуна Фильм)
Аудио 2: Русский (AC3, 2 ch, 192 Кбит/с) - професиональный многоголосый (СВ-Дубль)
Аудио 3: Русский (AC3, 1 ch, 192 Кбит/с) - професиональный многоголосый (Film Prestige)
Аудио 4: Русский (AC3, 1 ch, 128 Кбит/с) - професиональный многоголосый (Somewax)
Аудио 5: Русский (AC3, 2 ch, 192 Кбит/с)- дублированный (Варус Видео)
Аудио 6: Английский (AC3, 1 ch, 224 Кбит/с) - оригинал
Общее
Уникальный идентификатор : 253732965127214821580126115360748153551 (0xBEE33108DFE990D28B588C21C1CD2ACF)
Полное имя : E:Maltijskij.sokol.1941.x264.HDRip.(AVC).ExKinoRay.mkv
Формат : Matroska
Размер файла : 2,61 Гбайт
Продолжительность : 1 ч. 40 м.
Общий поток : 3717 Кбит/сек
Название фильма : Maltijskij.sokol.1941.x264.HDRip.(AVC).ExKinoRay
Дата кодирования : UTC 2013-09-19 15:42:39
Программа кодирования : mkvmerge v4.0.0 ('The Stars were mine') сборка от Jun 6 2010 16:18:42
Библиотека кодирования : libebml v1.0.0 + libmatroska v1.0.0

Видео
Идентификатор : 1
Формат : AVC
Формат/Информация : Advanced Video Codec
Профиль формата : High@L4.1
Параметр CABAC формата : Да
Параметр ReFrames формата : 8 кадров
Идентификатор кодека : V_MPEG4/ISO/AVC
Продолжительность : 1 ч. 40 м.
Битрейт : 2659 Кбит/сек
Ширина : 788 пикс.
Высота : 576 пикс.
Соотношение сторон : 4:3
Частота кадров : 23,976 кадр/сек
Цветовое пространство : YUV
Подвыборка цветности : 4:2:0
Битовая глубина : 8 бит
Тип развёртки : Прогрессивная
Бит/(Пиксели*Кадры) : 0.244
Размер потока : 1,82 Гбайт (70%)
Заголовок : Rip by Enigma-Vladislav71
Библиотека кодирования : x264 core 129 r2245 bc13772
Настройки программы : cabac=1 / ref=8 / deblock=1:-3:-3 / analyse=0x3:0x133 / me=umh / subme=11 / psy=1 / psy_rd=1.00:0.00 / mixed_ref=1 / me_range=48 / chroma_me=1 / trellis=2 / 8x8dct=1 / cqm=0 / deadzone=21,11 / fast_pskip=0 / chroma_qp_offset=-2 / threads=3 / lookahead_threads=1 / sliced_threads=0 / nr=0 / decimate=0 / interlaced=0 / bluray_compat=0 / constrained_intra=0 / bframes=8 / b_pyramid=2 / b_adapt=2 / b_bias=0 / direct=3 / weightb=1 / open_gop=0 / weightp=2 / keyint=240 / keyint_min=23 / scenecut=40 / intra_refresh=0 / rc_lookahead=40 / rc=2pass / mbtree=1 / bitrate=2659 / ratetol=1.0 / qcomp=0.60 / qpmin=10 / qpmax=51 / qpstep=4 / cplxblur=20.0 / qblur=0.5 / ip_ratio=1.40 / aq=2:1.00
Язык : English

Аудио #1
Идентификатор : 2
Формат : AC-3
Формат/Информация : Audio Coding 3
Расширение режима : CM (complete main)
Идентификатор кодека : A_AC3
Продолжительность : 1 ч. 40 м.
Вид битрейта : Постоянный
Битрейт : 192 Кбит/сек
Каналы : 2 канала
Расположение каналов : Front: L R
Частота : 48,0 КГц
Битовая глубина : 16 бит
Метод сжатия : С потерями
Размер потока : 138 Мбайт (5%)
Заголовок : дублированный (Варус Видео)
Язык : Russian

Аудио #2
Идентификатор : 3
Формат : AC-3
Формат/Информация : Audio Coding 3
Расширение режима : CM (complete main)
Идентификатор кодека : A_AC3
Продолжительность : 1 ч. 40 м.
Вид битрейта : Постоянный
Битрейт : 128 Кбит/сек
Каналы : 1 канал
Расположение каналов : Front: C
Частота : 48,0 КГц
Битовая глубина : 16 бит
Метод сжатия : С потерями
Размер потока : 92,1 Мбайт (3%)
Заголовок : професиональный многоголосый (Фортуна Фильм)
Язык : Russian

Аудио #3
Идентификатор : 4
Формат : AC-3
Формат/Информация : Audio Coding 3
Расширение режима : CM (complete main)
Идентификатор кодека : A_AC3
Продолжительность : 1 ч. 40 м.
Вид битрейта : Постоянный
Битрейт : 192 Кбит/сек
Каналы : 2 канала
Расположение каналов : Front: L R
Частота : 48,0 КГц
Битовая глубина : 16 бит
Метод сжатия : С потерями
Размер потока : 138 Мбайт (5%)
Заголовок : професиональный многоголосый (СВ-Дубль)
Язык : Russian

Аудио #4
Идентификатор : 5
Формат : AC-3
Формат/Информация : Audio Coding 3
Расширение режима : CM (complete main)
Идентификатор кодека : A_AC3
Продолжительность : 1 ч. 40 м.
Вид битрейта : Постоянный
Битрейт : 192 Кбит/сек
Каналы : 1 канал
Расположение каналов : Front: C
Частота : 48,0 КГц
Битовая глубина : 16 бит
Метод сжатия : С потерями
Размер потока : 138 Мбайт (5%)
Заголовок : професиональный многоголосый (Film Prestige)
Язык : Russian

Аудио #5
Идентификатор : 6
Формат : AC-3
Формат/Информация : Audio Coding 3
Расширение режима : CM (complete main)
Идентификатор кодека : A_AC3
Продолжительность : 1 ч. 40 м.
Вид битрейта : Постоянный
Битрейт : 128 Кбит/сек
Каналы : 1 канал
Расположение каналов : Front: C
Частота : 48,0 КГц
Битовая глубина : 16 бит
Метод сжатия : С потерями
Размер потока : 92,1 Мбайт (3%)
Заголовок : професиональный многоголосый (Somewax)
Язык : Russian

Аудио #6
Идентификатор : 7
Формат : AC-3
Формат/Информация : Audio Coding 3
Расширение режима : CM (complete main)
Идентификатор кодека : A_AC3
Продолжительность : 1 ч. 40 м.
Вид битрейта : Постоянный
Битрейт : 224 Кбит/сек
Каналы : 1 канал
Расположение каналов : Front: C
Частота : 48,0 КГц
Битовая глубина : 16 бит
Метод сжатия : С потерями
Размер потока : 161 Мбайт (6%)
Заголовок : английский
Язык : English

Текст
Идентификатор : 8
Формат : UTF-8
Идентификатор кодека : S_TEXT/UTF8
Идентификатор кодека/Информация : UTF-8 Plain Text
Язык : Russian
picpicpicpic
Для увеличения картинки щелкните мышкой по превью
[underverse.su].t31073.torrent
Трекер: Не зарегистрирован

Скачать

14 KB

Добавлен: 20.09.2013 10:31
Скачано: 0 раз  [ Список скачавших ]
   
 

Яндекс.Метрика powered by Sphinx


В Н И М А Н И Е
Сайт не распространяет и не хранит электронные версии произведений, а лишь бесплатно и без коммерческой выгоды (не требуя взамен платы,
SMS и т.д.) предоставляет доступ к создаваемому пользователями каталогу ссылок на торрент-файлы, которые содержат только списки хеш-сумм.
Убедительная просьба с жалобами обращаться напрямую к пользователю, разместившему торрент файл.

Вверх