Loading...
Error

Дневной свет / Daglicht (Дидерик Ван Ружен) [2013 г., боевик, триллер, BDRip-AVC] VO + Original

Статистика раздачи
Размер:  2,67 GB   |    Зарегистрирован:  3 года 2 месяца   |    Скачан:  26 раз

Полного источника не было: 2 года 5 месяцев

Сидов:  0  |  0 KB/s  ]   Личеров:  0  |  0 KB/s  ]

* - сиды/пиры с внешних источников

   
 
Автор Сообщение

Чертёнок Пол:Муж

19-Сен-2013 07:15

Дневной свет / Daglicht


Информация о фильме
Название: Дневной свет
Оригинальное название: Daglicht
Год выпуска: 2013
Жанр: Боевик, триллер
Выпущено: Нидерланды, Eyeworks Film & TV Drama
Режиссер: Дидерик Ван Ружен
В ролях: Дерек де Линт, Федя ван Хюэт, Моник ван де Вен, Анжела Схяйф, Виктор Лёв, Тийс Ромер, Маттео ван дер Грийн, Йап Спийкерс, Майк Реус, Сабина Соэтанто

О фильме: Успешный адвокат Ирис узнает, что её мать всю жизнь скрывала от неё один большой секрет. Оказывается, у неё есть старший брат, о существовании которого она даже не подозревала. Рэй, страдающий аутизмом, много лет назад был осужден за жестокое убийство, и теперь находится в судебно-психиатрической клинике. Проникнувшись сочувствием к своему брату, Ирис решает ему помочь, но в поисках истины ей придется столкнуться с такими препятствиями, которые изменят её жизнь навсегда.


Файл
Качество: BDRip (AVC)
Видео: MPEG-4 AVC, 2490 Кбит/с, 1024x420, 23.976 кадр/с
Аудио: Русский, голландский (AC3, 6 ch, 448 Кбит/с)
Размер: 2.67 ГБ
Продолжительность: 01:54:55
Перевод: Любительский одноголосый
Субтитры: Английские, голландские
Перевод - Любительский одноголосый - (Вадим Белов)

Семпл
Общее
Уникальный идентификатор : 236014707647785747266744543354340174777 (0xB18EC77EBA6328ED8F9E371CBF1AEBB9)
Полное имя : C:Users-DownloadsDaglicht.2013.x264.BDRip.(AVC).ExKinoRay.mkv
Формат : Matroska
Версия формата : Version 2
Размер файла : 2,67 Гбайт
Продолжительность : 1 ч. 54 м.
Общий поток : 3323 Кбит/сек
Название фильма : Дневной свет.2013. Rip by: ollan
Дата кодирования : UTC 2013-09-18 21:28:25
Программа кодирования : mkvmerge v5.6.0 ('Kenya Kane') built on May 27 2012 16:44:04
Библиотека кодирования : libebml v1.2.3 + libmatroska v1.3.0

Видео
Идентификатор : 1
Формат : AVC
Формат/Информация : Advanced Video Codec
Профиль формата : High@L4.1
Параметр CABAC формата : Да
Параметр ReFrames формата : 9 кадров
Идентификатор кодека : V_MPEG4/ISO/AVC
Продолжительность : 1 ч. 54 м.
Битрейт : 2490 Кбит/сек
Ширина : 1024 пикселя
Высота : 420 пикселей
Соотношение сторон : 2,40:1
Режим частоты кадров : Постоянный
Частота кадров : 23,976 кадра/сек
Цветовое пространство : YUV
Субдискретизация насыщенности : 4:2:0
Битовая глубина : 8 бит
Тип развёртки : Прогрессивная
Бит/(Пиксели*Кадры) : 0.241
Размер потока : 1,95 Гбайт (73%)
Библиотека кодирования : x264 core 130 r2273 b3065e6
Настройки программы : cabac=1 / ref=9 / deblock=1:-2:-2 / analyse=0x3:0x133 / me=umh / subme=11 / psy=1 / psy_rd=1.00:0.10 / mixed_ref=1 / me_range=32 / chroma_me=1 / trellis=2 / 8x8dct=1 / cqm=0 / deadzone=21,11 / fast_pskip=0 / chroma_qp_offset=-3 / threads=12 / lookahead_threads=2 / sliced_threads=0 / nr=0 / decimate=0 / interlaced=0 / bluray_compat=0 / constrained_intra=0 / bframes=8 / b_pyramid=2 / b_adapt=2 / b_bias=0 / direct=3 / weightb=1 / open_gop=0 / weightp=2 / keyint=240 / keyint_min=23 / scenecut=40 / intra_refresh=0 / rc_lookahead=80 / rc=2pass / mbtree=1 / bitrate=2490 / ratetol=1.0 / qcomp=0.60 / qpmin=0 / qpmax=69 / qpstep=4 / cplxblur=20.0 / qblur=0.5 / vbv_maxrate=5000 / vbv_bufsize=62500 / nal_hrd=none / ip_ratio=1.40 / aq=1:1.00
Default : Да
Forced : Нет

Аудио #1
Идентификатор : 2
Формат : AC-3
Формат/Информация : Audio Coding 3
Расширение режима : CM (complete main)
Параметр Endianness формата : Big
Идентификатор кодека : A_AC3
Продолжительность : 1 ч. 54 м.
Вид битрейта : Постоянный
Битрейт : 384 Кбит/сек
Каналы : 6 каналов
Расположение каналов : Front: L C R, Side: L R, LFE
Частота : 48,0 КГц
Битовая глубина : 16 бит
Метод сжатия : С потерями
Размер потока : 316 Мбайт (12%)
Заголовок : Любительский одноголосый (Вадим Белов)
Язык : Russian
Default : Да
Forced : Да

Аудио #2
Идентификатор : 3
Формат : AC-3
Формат/Информация : Audio Coding 3
Расширение режима : CM (complete main)
Параметр Endianness формата : Big
Идентификатор кодека : A_AC3
Продолжительность : 1 ч. 54 м.
Вид битрейта : Постоянный
Битрейт : 448 Кбит/сек
Каналы : 6 каналов
Расположение каналов : Front: L C R, Side: L R, LFE
Частота : 48,0 КГц
Битовая глубина : 16 бит
Метод сжатия : С потерями
Размер потока : 368 Мбайт (13%)
Язык : Dutch
Default : Нет
Forced : Нет

Текст #1
Идентификатор : 4
Формат : UTF-8
Идентификатор кодека : S_TEXT/UTF8
Идентификатор кодека/Информация : UTF-8 Plain Text
Язык : English
Default : Нет
Forced : Нет

Текст #2
Идентификатор : 5
Формат : UTF-8
Идентификатор кодека : S_TEXT/UTF8
Идентификатор кодека/Информация : UTF-8 Plain Text
Язык : Dutch
Default : Нет
Forced : Нет
picpicpicpic
Для увеличения картинки щелкните мышкой по превью

Этот торрент доступен для скачивания без регистрации. Перед тем, как его скачать, прочтите, пожалуйста Пользовательское соглашение, а также как можно дольше оставайтесь на раздаче! Также вы можете выкладывать этот торрент или ссылку на него на других интернет-ресурсах, в том числе на торрент трекерах. Для получение более подробной информации о релизе, а также для того, чтобы поблагодарить релизера, вам необходимо зарегистрироваться.

[underverse.su].t31041.torrent
Трекер: Зарегистрирован   [ 19.09.2013 07:15 ]   [ торрент доступен для скачивания без регистрации ]

Статус: проверено (by Чертёнок at 19.09.2013 07:15)
Поблагодарили: 1 человек
Тип торрента: публичный - доступные источники с открытых трекеров: 
Размер: 2,67 GB (занимает 0,61 DVDR, для записи нужно 1 болванка DVDR/RW)
 
 
Похожие темы
Форум Тема Автор Торрент Отв. Посл. сооб.
Зарубежное кино [DVDRip, Low-Res HDRip, и т.д.] Дневной свет / Daglicht (Дидерик Ван Ружен) [2013 г., боевик, триллер, DVDRip] VO (Вадим Белов) + Original 90ytr90
36 | 0

0 | 936

13

09.09.2013 04:33

Зарубежное кино [DVDRip, Low-Res HDRip, и т.д.] Дневной свет / Daglicht (Дидерик Ван Ружен) [2013 г., триллер, BDRip] VO Паукан
2 | 0

0 | 1043

15

11.09.2013 10:26

bezug22 Пол:Муж

19-Сен-2013 13:45

Спасибо за фильм хотел давно посмотреть

Яндекс.Метрика powered by Sphinx


В Н И М А Н И Е
Сайт не распространяет и не хранит электронные версии произведений, а лишь бесплатно и без коммерческой выгоды (не требуя взамен платы,
SMS и т.д.) предоставляет доступ к создаваемому пользователями каталогу ссылок на торрент-файлы, которые содержат только списки хеш-сумм.
Убедительная просьба с жалобами обращаться напрямую к пользователю, разместившему торрент файл.

Вверх