Loading...
Error

Семейка Крудс / The Croods (Крис Сандерс, Кирк де Микко) [2013 г., комедия, мультфильм, приключения, семейный, полнометражный, BDRip] Dub + Original + Sub (Eng) HQ Underverse

Статистика раздачи
Размер:  2,17 GB   |    Зарегистрирован:  3 года 2 месяца   |    Скачан:  49 раз

Полного источника не было: 15 часов

Сидов:  0  |  0 KB/s  ]   Личеров:  0  |  0 KB/s  ]

* - сиды/пиры с внешних источников

   
 
Автор Сообщение

HQ Underverse 

17-Сен-2013 10:14

Семейка Крудс / The Croods


Год выпуска: 2013
Жанр: комедия, мультфильм, приключения, семейный, полнометражный
Страна: США
Режиссер: Крис Сандерс, Кирк де Микко
В ролях: Эмма Стоун, Райан Рейнольдс, Николас Кейдж, Кэтрин Кинер, Клорис Личмен, Кларк Дьюк, Крис Сандерс
Сюжет фильма:
Чего только не сделаешь ради сохранения семьи, несмотря на то, что она доисторическая! Вот и мужественный глава семейства был твёрдо уверен - главное не позволять никогда и ничего менять и всегда жить"как в каменном веке" - по своим привычным правилам, в своей известной вдоль и поперёк пещере! И может, всё бы так и было бы, но однажды землетрясение нарушает привычный жизненный уклад и вынуждает срочно искать другую, неизвестную пока, пещеру, в непонятном и переменчивом мире, полном страшных опасностей и разных незнакомцев всех видов и мастей! Будет ли той семейке и на новом месте веселее вместе и что поможет ей выжить и достичь заветной цели?

  • Мировая премьера: 15 февраля 2013
  • Российская премьера: 21 марта 2013, «Двадцатый Век Фокс СНГ» 3D

/
Качество видео: BDRip

Продолжительность: 01:38:36
Формат: avi
Видео: XviD, 720x304, 2237 kbps
Аудио #1: русский, дублированный [лицензия], AC3 5.1, 448 kbps
Аудио #2: английский, оригинал, AC3 5.1, 448 kbps
Субтитры: внешние, SRT, английский

Код:

General
Complete name                    : Z:\windoza-share\Семейка Крудс\The.Croods.2013.BDRip.XviD.AC3.Rus.D.Eng.O.HQ.Underverse.avi
Format                           : AVI
Format/Info                      : Audio Video Interleave
Format profile                   : OpenDML
File size                        : 2.17 GiB
Duration                         : 1h 38mn
Overall bit rate                 : 3 151 Kbps
Writing application              : VirtualDubMod 1.5.10.2 (build 2540/release)
Writing library                  : VirtualDubMod build 2540/release

Video
ID                               : 0
Format                           : MPEG-4 Visual
Format profile                   : Streaming Video@L1
Format settings, BVOP            : Yes
Format settings, QPel            : No
Format settings, GMC             : No warppoints
Format settings, Matrix          : Custom
Muxing mode                      : Packed bitstream
Codec ID                         : XVID
Codec ID/Hint                    : XviD
Duration                         : 1h 38mn
Bit rate                         : 2 237 Kbps
Width                            : 720 pixels
Height                           : 304 pixels
Display aspect ratio             : 2.35
Frame rate                       : 23.976 fps
Resolution                       : 24 bits
Colorimetry                      : 4:2:0
Scan type                        : Progressive
Bits/(Pixel*Frame)               : 0.426
Stream size                      : 1.54 GiB (71%)
Writing library                  : XviD 64

Audio #1
ID                               : 1
Format                           : AC-3
Format/Info                      : Audio Coding 3
Codec ID                         : 2000
Duration                         : 1h 38mn
Bit rate mode                    : Constant
Bit rate                         : 448 Kbps
Channel(s)                       : 6 channels
Channel positions                : Front: L C R, Surround: L R, LFE
Sampling rate                    : 48.0 KHz
Stream size                      : 316 MiB (14%)
Alignment                        : Split accross interleaves
Interleave, duration             : 42 ms (1.00 video frame)
Interleave, preload duration     : 500 ms

Audio #2
ID                               : 2
Format                           : AC-3
Format/Info                      : Audio Coding 3
Codec ID                         : 2000
Duration                         : 1h 38mn
Bit rate mode                    : Constant
Bit rate                         : 448 Kbps
Channel(s)                       : 6 channels
Channel positions                : Front: L C R, Surround: L R, LFE
Sampling rate                    : 48.0 KHz
Stream size                      : 316 MiB (14%)
Alignment                        : Split accross interleaves
Interleave, duration             : 42 ms (1.00 video frame)
Interleave, preload duration     : 500 ms

Релиз группы:

picpicpic
Для увеличения картинки щелкните мышкой по превью

Этот торрент недоступен для скачивания без регистрации, однако доступен по публичной magnet-ссылке (источники с публичных трекеров). Перед использованием ссылки прочтите, пожалуйста Пользовательское соглашение, а также как можно дольше оставайтесь на раздаче! Для того, чтобы скачать сам торрент-файл (который видит больше источников), а также для того, чтобы поблагодарить релизера, вам необходимо зарегистрироваться. Если регистрироваться лень - вы можете также попробовать скачать релиз по нашим партнерским ссылкам ниже.

[underverse.su].t30985.torrent
Трекер: Зарегистрирован   [ 17.09.2013 10:14 ]  

Статус: проверено (by HQ Underverse at 17.09.2013 10:14)
Поблагодарили: 3 человека
Тип торрента: публичный - доступные источники с открытых трекеров: 
Размер: 2,17 GB (занимает 1/2 DVDR, для записи нужно 1 болванка DVDR/RW)
 
 
Похожие темы
Форум Тема Автор Торрент Отв. Посл. сооб.
Зарубежные мультфильмы Семейка Крудс / The Croods (Крис Сандерс, Кирк де Микко) [2013 г., комедия, мультфильм, приключения, семейный, полнометражный, DVDRip] Dub 90ytr90
1 | 0

0 | 1529

72

12.09.2013 19:45

Зарубежные мультфильмы Семейка Крудс / The Croods (Крис Сандерс, Кирк де Микко) [2013 г., комедия, мультфильм, приключения, семейный, полнометражный, HDRip] Dub 90ytr90
1 | 0

0 | 1386

60

13.09.2013 16:02

Мультфильмы [HDDVDRip / BDRip / WEB-DL / HDTV 1080/720р] Семейка Крудс / The Croods (Кирк де Микко, Крис Сандерс) [2013 г., мультфильм, комедия, приключения, семейный, BDRip 720p] Dub + Original 90ytr90
3 | 0

0 | 591

33

13.09.2013 16:14

Мультфильмы [HDDVDRip / BDRip / WEB-DL / HDTV 1080/720р] Семейка Крудс / The Croods (Кирк де Микко, Крис Сандерс) [2013 г., мультфильм, комедия, приключения, семейный, BDRip 720p] DuB + Original [Лицензия] Чертёнок
1 | 1

0 | 734

16

14.09.2013 10:40

Мультфильмы [HDDVDRip / BDRip / WEB-DL / HDTV 1080/720р] Семейка Крудс / The Croods (Крис Сандерс, Кирк де Микко) [2013., фэнтези, комедия, BDRip 1080p] Dub + Original bezug22
51 | 1

2 | 736

24

17.09.2013 16:25

* Мультфильмы [HDDVDRip / BDRip / WEB-DL / HDTV 1080/720р] Семейка Крудс / The Croods (Крис Сандерс, Кирк де Микко) [2013 г., комедия, мультфильм, приключения, семейный, полнометражный, BDRip 1080p] DuB + Original + Sub | 3D-Video | HOU | Лицензия Чертёнок

0 | 1359

18.09.2013 12:19


Яндекс.Метрика powered by Sphinx


В Н И М А Н И Е
Сайт не распространяет и не хранит электронные версии произведений, а лишь бесплатно и без коммерческой выгоды (не требуя взамен платы,
SMS и т.д.) предоставляет доступ к создаваемому пользователями каталогу ссылок на торрент-файлы, которые содержат только списки хеш-сумм.
Убедительная просьба с жалобами обращаться напрямую к пользователю, разместившему торрент файл.

Вверх