Loading...
Error

Ведьмы Страны Оз (The Witches of Oz) (Ли Скотт) [2011 г., фэнтези, комедия, боевик, HDRip] Dub

Статистика раздачи
Размер:  2,05 GB   |    Зарегистрирован:  3 года 2 месяца   |    Скачан:  35 раз

Полного источника не было: 4 дня

Сидов:  0  |  0 KB/s  ]   Личеров:  0  |  0 KB/s  ]

* - сиды/пиры с внешних источников

   
 
Автор Сообщение

tolstymihh Пол:Муж

16-Сен-2013 21:36

Ведьмы Страны Оз (The Witches of Oz)


Год выпуска: 2011
Жанр: фэнтези, комедия, боевик
Страна: США
Режиссер: Ли Скотт
В ролях: Шон Эстин, Билли Бойд, Джеффри Комбс, Росс Дегроу, Монти Доминге, Лиз Дуглас, Росс Эдгар, Итэн Эмбри, Лэнс Хенриксен, Брайан Ли Хюн, Саша Джексон, Сарра Кауфман, Сара Ливинг, Кристофер Ллойд, Ребекка Ловетт, Фрэнк Мартинелли, Элизабет Масуччи, Билл МакАдамс мл., Аше Паркер, Реджей, Бэрри Дж. Ретклифф, Поли Рохас, Шанель Райан, Миа Сара, Ли Скотт, Дэниэл Серджо, Аль Сноу, Джессика Соннеборн, Элиза Свенсон, Брук Тейлор, Розмари Томас, Ноэль Турман, Джордан Турнидж, Дэвид Бостон, Джей Гаррисон
Сюжет фильма:
Дороти Гейл — простая девушка, живущая со своим дядей Генри в Канзасе. В свободное время она пишет книги для детей о выдуманной ее дедом стране Оз. Жизнь Дороти резко меняется, когда ее приглашают в Нью-Йорк для презентации своих книг. Для нее здесь все незнакомо и странно. Неожиданно Дороти понимает, что рассказы деда о чудесах страны Оз и ее персонажах очень и очень… реальны.

  • Мировая премьера: 01.01.2011

Качество видео: HDRip

Продолжительность: 02:45:34
Формат: avi
Видео: XviD, 720x400, 1573 kbps
Аудио: русский, дублированный, AC3 2.0, 192 kbps

Код:

General
Complete name                    : C:\Documents and Settings\Миша\Мои документы\Downloads\Vedmy.strany.Ozz.2011.P.HDRip.2100Mb.avi
Format                           : AVI
Format/Info                      : Audio Video Interleave
File size                        : 2.05 GiB
Duration                         : 2h 45mn
Overall bit rate                 : 1 775 Kbps
Writing application              : VirtualDubMod 1.5.10.2 (build 2540/release)
Writing library                  : VirtualDubMod build 2540/release

Video
ID                               : 0
Format                           : MPEG-4 Visual
Format profile                   : Streaming Video@L1
Format settings, BVOP            : Yes
Format settings, QPel            : No
Format settings, GMC             : No warppoints
Format settings, Matrix          : Default (H.263)
Muxing mode                      : Packed bitstream
Codec ID                         : XVID
Codec ID/Hint                    : XviD
Duration                         : 2h 45mn
Bit rate                         : 1 573 Kbps
Width                            : 720 pixels
Height                           : 400 pixels
Display aspect ratio             : 16/9
Frame rate                       : 23.976 fps
Resolution                       : 24 bits
Colorimetry                      : 4:2:0
Scan type                        : Progressive
Bits/(Pixel*Frame)               : 0.228
Stream size                      : 1.82 GiB (89%)
Writing library                  : XviD 64

Audio
ID                               : 1
Format                           : AC-3
Format/Info                      : Audio Coding 3
Codec ID                         : 2000
Duration                         : 2h 45mn
Bit rate mode                    : Constant
Bit rate                         : 192 Kbps
Channel(s)                       : 2 channels
Channel positions                : L R
Sampling rate                    : 48.0 KHz
Stream size                      : 227 MiB (11%)
Alignment                        : Split accross interleaves
Interleave, duration             : 42 ms (1.00 video frame)
Interleave, preload duration     : 500 ms

picpicpicpicpic
Для увеличения картинки щелкните мышкой по превью

Этот торрент недоступен для скачивания без регистрации, однако доступен по публичной magnet-ссылке (источники с публичных трекеров). Перед использованием ссылки прочтите, пожалуйста Пользовательское соглашение, а также как можно дольше оставайтесь на раздаче! Для того, чтобы скачать сам торрент-файл (который видит больше источников), а также для того, чтобы поблагодарить релизера, вам необходимо зарегистрироваться. Если регистрироваться лень - вы можете также попробовать скачать релиз по нашим партнерским ссылкам ниже.

[underverse.su].t30973.torrent
Трекер: Зарегистрирован   [ 16.09.2013 21:36 ]  

Статус: проверено (by Чертёнок at 16.09.2013 21:53)
Поблагодарили: пока никто не поблагодарил...
Тип торрента: публичный - доступные источники с открытых трекеров: 
Размер: 2,05 GB (занимает 0,47 DVDR, для записи нужно 1 болванка DVDR/RW)
 
 

Яндекс.Метрика powered by Sphinx


В Н И М А Н И Е
Сайт не распространяет и не хранит электронные версии произведений, а лишь бесплатно и без коммерческой выгоды (не требуя взамен платы,
SMS и т.д.) предоставляет доступ к создаваемому пользователями каталогу ссылок на торрент-файлы, которые содержат только списки хеш-сумм.
Убедительная просьба с жалобами обращаться напрямую к пользователю, разместившему торрент файл.

Вверх