Loading...
Error

Возвращение волшебников: Алекс против Алекс / The Wizards Return: Alex vs. Alex (Виктор Гонзалез) [2013 г., Комедия, фэнтези, драма, приключения, семейный, WEB-DL 1080p]

Статистика раздачи
Размер:  2,32 GB   |    Зарегистрирован:  3 года 2 месяца   |    Скачан:  20 раз

Полного источника не было: 6 месяцев

Сидов:  0  |  0 KB/s  ]   Личеров:  0  |  0 KB/s  ]

* - сиды/пиры с внешних источников

   
 
Автор Сообщение

nemos Пол:Муж

16-Сен-2013 13:21

Возвращение волшебников: Алекс против Алекс / The Wizards Return: Alex vs. Alex


Год выпуска: 2013
Жанр: Комедия, фэнтези, драма, приключения, семейный
Страна: США
Режиссер: Виктор Гонзалез
В ролях: Селена Гомес, Бо Мирчофф, Джейк Т. Остин, Дженнифер Стоун, Мария Каналс, Дэвид ДеЛуис, Грегг Салкин, Винс Фалзон, Никки Хан, Эвелин Илиопулос
Сюжет фильма:
Руссо вместе с друзьями отправились в Тоскану - на историческую родину, повидаться с дальними родственниками. Однако непоседа Алекс, желая доказать, что она - нечто большее, чем просто беззаботная юная волшебница, случайно наложила на себя довольно необычное древнее заклятие: ее сущность разделилась на две противоположные половины, Злую Алекс и, соответственно, Добрую. Так что теперь, пока Злой двойник строит планы по захвату всего Мира, настоящая юная кудесница вынуждена не только ее усмирять - на вершине Пизанской Башни - но и попутно разбираться с собственными родственниками.


Качество видео: WEB-DL 1080p

Продолжительность: 00:58:39
Формат: MKV
Видео: MPEG-4 AVC, 1920x1080, 4931 kbps
Аудио #1: русский, одноголосый закадровый [любительский], AC3 2.0, 224 kbps
Аудио #2: английский, AC3 5.1, 384 kbps
Субтитры: Russian

Код:

D:\Фильмы (роздача)\Vozvraschenie.Volshebnikov.Alex.VS.Alex.2013.x264.WEB-DL.(1080p).mkv
   General
      Unique ID : 193606312185440430193403218349616015674 (0x91A7382AFE65523A821B6B6B62EC293A)
      Complete name : D:\Фильмы (роздача)\Vozvraschenie.Volshebnikov.Alex.VS.Alex.2013.x264.WEB-DL.(1080p).mkv
      Format : Matroska
      Format version : Version 2
      File size : 2.32 GiB
      Duration : 58mn 39s
      Overall bit rate : 5 652 Kbps
      Movie name : |<<| ?? |Alexandr 80| > | ¦ |>>|
      Encoded date : UTC 2013-03-29 11:13:57
      Writing application : mkvmerge v4.3.0 ('Escape from the Island') сборка от Sep  5 2010 10:30:51
      Writing library : libebml v1.0.0 + libmatroska v1.0.0
   Video #1
      ID : 1
      Format : AVC
      Format/Info : Advanced Video Codec
      Format profile : High@L4.0
      Format settings, CABAC : Yes
      Format settings, ReFrames : 4 frames
      Codec ID : V_MPEG4/ISO/AVC
      Duration : 58mn 39s
      Bit rate : 4 931 Kbps
      Width : 1 920 pixels
      Height : 1 080 pixels
      Display aspect ratio : 16:9
      Frame rate mode : Constant
      Frame rate : 23.976 fps
      Color space : YUV
      Chroma subsampling : 4:2:0
      Bit depth : 8 bits
      Scan type : Progressive
      Bits/(Pixel*Frame) : 0.099
      Stream size : 2.02 GiB (87%)
      Language : English
      Default : Yes
      Forced : No
      Color primaries : BT.709
      Transfer characteristics : BT.709
      Matrix coefficients : BT.709
   Audio #2
      ID : 2
      Format : AC-3
      Format/Info : Audio Coding 3
      Mode extension : CM (complete main)
      Format settings, Endianness : Big
      Codec ID : A_AC3
      Duration : 58mn 39s
      Bit rate mode : Constant
      Bit rate : 224 Kbps
      Channel(s) : 2 channels
      Channel positions : Front: L R
      Sampling rate : 48.0 KHz
      Bit depth : 16 bits
      Compression mode : Lossy
      Stream size : 94.0 MiB (4%)
      Language : Russian
      Default : Yes
      Forced : No
   Audio #3
      ID : 3
      Format : AC-3
      Format/Info : Audio Coding 3
      Mode extension : CM (complete main)
      Format settings, Endianness : Big
      Codec ID : A_AC3
      Duration : 58mn 39s
      Bit rate mode : Constant
      Bit rate : 384 Kbps
      Channel(s) : 6 channels
      Channel positions : Front: L C R, Side: L R, LFE
      Sampling rate : 48.0 KHz
      Bit depth : 16 bits
      Compression mode : Lossy
      Stream size : 161 MiB (7%)
      Language : English
      Default : No
      Forced : No
   Text #4
      ID : 4
      Format : UTF-8
      Codec ID : S_TEXT/UTF8
      Codec ID/Info : UTF-8 Plain Text
      Language : Russian
      Default : No
      Forced : No
Семпл: http://multi-up.com/904010

picpicpicpicpicpicpicpic
Для увеличения картинки щелкните мышкой по превью

Этот торрент недоступен для скачивания без регистрации, однако доступен по публичной magnet-ссылке (источники с публичных трекеров). Перед использованием ссылки прочтите, пожалуйста Пользовательское соглашение, а также как можно дольше оставайтесь на раздаче! Для того, чтобы скачать сам торрент-файл (который видит больше источников), а также для того, чтобы поблагодарить релизера, вам необходимо зарегистрироваться. Если регистрироваться лень - вы можете также попробовать скачать релиз по нашим партнерским ссылкам ниже.

[underverse.su].t30956.torrent
Трекер: Зарегистрирован   [ 16.09.2013 13:21 ]  

Статус: проверено (by 90ytr90 at 17.09.2013 06:55)
Поблагодарили: 1 человек
Тип торрента: публичный - доступные источники с открытых трекеров: 
Размер: 2,32 GB (занимает 0,53 DVDR, для записи нужно 1 болванка DVDR/RW)
 
 
Похожие темы
Форум Тема Автор Торрент Отв. Посл. сооб.
Зарубежное кино [DVDRip, Low-Res HDRip, и т.д.] Возвращение / Restitution (Lance Kawas) [2011 г., триллер, криминал, HDRip] MVO [лицензия] 90ytr90
1 | 0

0 | 556

20

22.09.2012 10:42

Зарубежное кино [DVDRip, Low-Res HDRip, и т.д.] Возвращение на базу / Взвейся в небо / R2B: Return 2 Base (Донг-вон Ким) [2012 г., боевик, драма, HDTVRip] DVO (den904, DeadSno) 90ytr90
11 | 0

0 | 1014

19

07.12.2012 21:12

Зарубежное кино [DVDRip, Low-Res HDRip, и т.д.] Возвращение живых мертвецов 3 / Return of the Living Dead III (Брайан Юзна) [1993 г., ужасы, фантастика, мелодрама, DVDRip] MVO RG NewCinema
3 | 0

0 | 1279

6

09.12.2012 17:32

Зарубежное кино [DVDRip, Low-Res HDRip, и т.д.] Возвращение в Брайдсхед / Brideshead Revisited (Джулиан Джаррольд) [2008, драма, мелодрама, HDRip] MVO (R5) + DVO + Sub (2 x Rus; Eng) + Original Eng Garnett
10 | 1

0 | 1413

1

17.12.2012 12:19

Зарубежное кино [DVDRip, Low-Res HDRip, и т.д.] Возвращение на базу / Взвейся в небо / R2B: Return 2 Base / Soar Into The Sun (Донг-вон Ким / Dong-won Kim) [2012 г., боевик, драма, BDRip] DVO (den904, DeadSno) + DVO (Green Tea) + Original 90ytr90
0 | 0

0 | 723

14

25.12.2012 05:07

Зарубежное кино [DVDRip, Low-Res HDRip, и т.д.] Возвращение на остров Ним / Return to Nim's Island (Брендан Мехер) [2013 г., семейный, приключения, комедия, DVDRip] DVO RG NewCinema
15 | 0

0 | 7727

20

19.04.2013 13:50

Зарубежное кино [DVDRip, Low-Res HDRip, и т.д.] Возвращение героя / The Last Stand (Ким Чжи Ун) [2013 г., боевик, триллер, криминал, HDRip] Dub [Лицензия] TERRAN
133 | 0

0 | 1510

95

21.04.2013 15:35

Зарубежное кино [DVDRip, Low-Res HDRip, и т.д.] Возвращение героя / The Last Stand (Ким Чжи-ун) [2013 г., боевик, триллер, криминал, HDRip] Dub + Eng 90ytr90
3 | 0

0 | 1170

9

21.04.2013 18:57

Зарубежное кино [DVDRip, Low-Res HDRip, и т.д.] Возвращение героя / The Last Stand (Ким Чжи Ун / Kim Ji Woon) [2013 г., боевик, триллер, криминал, BDRip-AVC] DUB + Original Печаль'ka
22 | 0

1 | 984

31

21.05.2013 07:49

Зарубежное кино [DVDRip, Low-Res HDRip, и т.д.] Возвращение героя / The Last Stand (Ким Чжи Ун / Kim Ji Woon) [2013 г., боевик, триллер, криминал, BDRip-AVC] Dub 90ytr90
16 | 0

0 | 1137

27

22.04.2013 16:00



Последний раз редактировалось: nemos (17.09.2013 06:10), всего редактировалось 1 раз

Яндекс.Метрика powered by Sphinx


В Н И М А Н И Е
Сайт не распространяет и не хранит электронные версии произведений, а лишь бесплатно и без коммерческой выгоды (не требуя взамен платы,
SMS и т.д.) предоставляет доступ к создаваемому пользователями каталогу ссылок на торрент-файлы, которые содержат только списки хеш-сумм.
Убедительная просьба с жалобами обращаться напрямую к пользователю, разместившему торрент файл.

Вверх