Loading...
Error

Господа офицеры: Cпасти императора ( Олег Фомин ) [2008 г., боевик, драма, исторический фильм, приключения, DVDRip]

Статистика раздачи
Размер:  699 MB   |    Зарегистрирован:  3 года 2 месяца   |    Скачан:  15 раз

Полного источника не было: 1 год 3 месяца

Сидов:  0  |  0 KB/s  ]   Личеров:  0  |  0 KB/s  ]

* - сиды/пиры с внешних источников

   
 
Автор Сообщение

vasilich619 Пол:Муж

14-Сен-2013 18:20

Господа офицеры: Cпасти императора


Год выпуска: 2008
Жанр: боевик, драма, исторический фильм, приключения
Страна: Россия
Режиссер: Олег Фомин
В ролях: Олег Фомин, Александр Бухаров, Анатолий Белый, Сергей Баталов, Анна Азарова, Павел Абдалов, Владимир Виноградов, Марат Башаров, Михаил Горевой, Станислав Дужников, Гейдар (Геннадий) Садыхов, Юрий Сысоев, Евгений Стычкин, Леонид Тимцуник, Александр Рапопорт, Николай Рябычин, Дмитрий Титов, Юрий Маслак, Юрий Круценко, Алексей Франдетти, Евгений Мундум, Юрий Нифонтов, Сергей Чекрыгин, Сергей Краснов, Денис Константинов, Александр Орловский, Александр Гизгизов, Наталья Догадина, Александр Соловьёв (младший), Роман Савченко, Александр Федин (II), Дмитрий Саблин, Виктор Лидер, Алексей Шедько, Олег Корчиков, Иван Мацкевич, Игорь Сигов, Дмитрий Глазачев, Александр Старченко, Алеся Пуховая, Марина Денисова, Сергей Кузьминых, Дмитрий Проданов, Олег Шеремет-Доска, Сергей Баровский, Сергей Прокопич
Сюжет фильма:
В основе сюжета — попытка группы белых офицеров спасти семью императора Николая II из Екатеринбурга. Этих людей сразу предали, против них ведет настоящие боевые операции отряд красных. В итоге — это дуэль двух лидеров, один из которых — руководитель группы по спасению императора, другой — уполномоченный от Красной Армии.

Драматический период российский истории. Россия, лето 1918 года.
награды, номинации, фестивали
На кинофестивале "Золотой феникс" за самый зрелищный историко-приключенческий фильм спецприз имени Юрия Никулина.

  • Российская премьера: 17 апреля 2008


Качество видео: DVDRip

Продолжительность: 01:40:06
Формат: avi
Видео: XviD, 688x368, 840 kbps
Аудио: MP3 2.0, 128 kbps
Язык: русский
Перевод: не требуется

Код:

General
Complete name                    : E:\раздачи\Господа офицеры. Спасти императора\Gospoda.Oficery-Spasti.imperatora.2008.O.avi
Format                           : AVI
Format/Info                      : Audio Video Interleave
File size                        : 699 MiB
Duration                         : 1h 40mn
Overall bit rate                 : 976 Kbps
Writing application              : VirtualDubMod 1.5.4.1 (build 2178/release)
Writing library                  : VirtualDubMod build 2178/release

Video
ID                               : 0
Format                           : MPEG-4 Visual
Format profile                   : Simple@L3
Format settings, BVOP            : Yes
Format settings, QPel            : No
Format settings, GMC             : No warppoints
Format settings, Matrix          : Custom
Codec ID                         : XVID
Codec ID/Hint                    : XviD
Duration                         : 1h 40mn
Bit rate                         : 841 Kbps
Width                            : 688 pixels
Height                           : 368 pixels
Display aspect ratio             : 1.870
Frame rate                       : 25.000 fps
Resolution                       : 24 bits
Colorimetry                      : 4:2:0
Scan type                        : Progressive
Bits/(Pixel*Frame)               : 0.133
Stream size                      : 602 MiB (86%)
Writing library                  : XviD 1.0.1 (UTC 2004-06-05)

Audio
ID                               : 1
Format                           : MPEG Audio
Format version                   : Version 1
Format profile                   : Layer 3
Codec ID                         : 55
Codec ID/Hint                    : MP3
Duration                         : 1h 40mn
Bit rate mode                    : Constant
Bit rate                         : 128 Kbps
Channel(s)                       : 2 channels
Sampling rate                    : 48.0 KHz
Resolution                       : 16 bits
Stream size                      : 91.7 MiB (13%)
Alignment                        : Aligned on interleaves
Interleave, duration             : 80 ms (2.00 video frames)
Interleave, preload duration     : 504 ms
Writing library                  : LAME3.97
Encoding settings                : -m j -V 4 -q 2 -lowpass 17 -b 128
Language                         : Russian

picpicpicpicpicpic
Для увеличения картинки щелкните мышкой по превью

Этот торрент недоступен для скачивания без регистрации, однако доступен по публичной magnet-ссылке (источники с публичных трекеров). Перед использованием ссылки прочтите, пожалуйста Пользовательское соглашение, а также как можно дольше оставайтесь на раздаче! Для того, чтобы скачать сам торрент-файл (который видит больше источников), а также для того, чтобы поблагодарить релизера, вам необходимо зарегистрироваться. Если регистрироваться лень - вы можете также попробовать скачать релиз по нашим партнерским ссылкам ниже.

[underverse.su].t30917.torrent
Трекер: Зарегистрирован   [ 14.09.2013 18:20 ]  

Статус: проверено (by Чертёнок at 14.09.2013 19:29)
Поблагодарили: 2 человека
Тип торрента: публичный - доступные источники с открытых трекеров: 
Размер: 699 MB (занимает 0,16 DVDR, для записи нужно 1 болванка DVDR/RW)
 
 

Яндекс.Метрика powered by Sphinx


В Н И М А Н И Е
Сайт не распространяет и не хранит электронные версии произведений, а лишь бесплатно и без коммерческой выгоды (не требуя взамен платы,
SMS и т.д.) предоставляет доступ к создаваемому пользователями каталогу ссылок на торрент-файлы, которые содержат только списки хеш-сумм.
Убедительная просьба с жалобами обращаться напрямую к пользователю, разместившему торрент файл.

Вверх