Loading...
Error

Стартрек: Возмездие / Star Trek Into Darkness (Дж. Дж. Абрамс) [2013 г., фантастика, боевик, приключения, BDRip] Dub + Original + Sub (Rus,Ukr,Eng) HQ Underverse

Статистика раздачи
Размер:  2,18 GB   |    Зарегистрирован:  3 года 7 месяцев   |    Скачан:  112 раз

Полного источника не было: 11 месяцев

Сидов:  0  |  0 KB/s  ]   Личеров:  0  |  0 KB/s  ]

* - сиды/пиры с внешних источников

   
 
Автор Сообщение

HQ Underverse 

13-Сен-2013 12:20

Стартрек: Возмездие / Star Trek Into Darkness


Год выпуска: 2013
Жанр: фантастика, боевик, приключения
Страна: США
Режиссер: Дж. Дж. Абрамс
В ролях: Крис Пайн, Закари Куинто, Зои Салдана, Карл Урбан, Бенедикт Камбербэтч, Саймон Пегг, Элис Ив, Антон Ельчин, Джон Чо, Питер Уэллер
Сюжет фильма:
Вернувшись на Землю, команда корабля «Энтерпрайз» обнаруживает, что деятельность и принципы их организации подорваны изнутри. Флот скован необъяснимым ужасом и бездействует, пока мир все глубже погружается в бездну. Капитан Кирк берет на себя руководство операцией по поимке злодея, ответственного за этот хаос и способного уничтожить все человечество. В запутанной игре не на жизнь, а на смерть, любовь и дружба будут принесены в жертву ради единственного, что осталось у Кирка — его команды.

  • Мировая премьера: 2 мая 2013
  • Российская премьера: 16 мая 2013, «Централ Партнершип»

|
Качество видео: BDRip

Продолжительность: 02:12:05
Формат: avi
Видео: XviD, 720x304, 1964 kbps
Аудио #1: русский, дублированный [лицензия], AC3 5.1, 384 kbps
Аудио #2: английский, оригинал, AC3 5.1, 384 kbps (отдельным файлом: здесь)
Субтитры #1: внешние, SRT, русский
Субтитры #2: внешние, SRT, украинский
Субтитры #3: внешние, SRT, английский

Код:

General
Complete name                    : Z:\windoza-share\Стартрек Возмездие\Star.Trek.Into.Darkness.2013.BDRip.XviD.AC3.Rus.D.HQ.Underverse.avi
Format                           : AVI
Format/Info                      : Audio Video Interleave
Format profile                   : OpenDML
File size                        : 2.18 GiB
Duration                         : 2h 12mn
Overall bit rate                 : 2 360 Kbps
Writing application              : VirtualDubMod 1.5.10.2 (build 2540/release)
Writing library                  : VirtualDubMod build 2540/release

Video
ID                               : 0
Format                           : MPEG-4 Visual
Format profile                   : Streaming Video@L1
Format settings, BVOP            : Yes
Format settings, QPel            : No
Format settings, GMC             : No warppoints
Format settings, Matrix          : Custom
Muxing mode                      : Packed bitstream
Codec ID                         : XVID
Codec ID/Hint                    : XviD
Duration                         : 2h 12mn
Bit rate                         : 1 965 Kbps
Width                            : 720 pixels
Height                           : 304 pixels
Display aspect ratio             : 2.35
Frame rate                       : 23.976 fps
Resolution                       : 24 bits
Colorimetry                      : 4:2:0
Scan type                        : Progressive
Bits/(Pixel*Frame)               : 0.374
Stream size                      : 1.81 GiB (83%)
Writing library                  : XviD 64

Audio
ID                               : 1
Format                           : AC-3
Format/Info                      : Audio Coding 3
Codec ID                         : 2000
Duration                         : 2h 12mn
Bit rate mode                    : Constant
Bit rate                         : 384 Kbps
Channel(s)                       : 6 channels
Channel positions                : Front: L C R, Surround: L R, LFE
Sampling rate                    : 48.0 KHz
Stream size                      : 363 MiB (16%)
Alignment                        : Split accross interleaves
Interleave, duration             : 42 ms (1.00 video frame)
Interleave, preload duration     : 500 ms

General
Complete name                    : Z:\windoza-share\Стартрек Возмездие\Star.Trek.Into.Darkness.2013.BDRip.XviD.AC3.Rus.D.HQ.Underverse.ENG.ac3
Format                           : AC-3
Format/Info                      : Audio Coding 3
File size                        : 363 MiB
Duration                         : 2h 12mn
Overall bit rate                 : 384 Kbps

Audio
Format                           : AC-3
Format/Info                      : Audio Coding 3
Duration                         : 2h 12mn
Bit rate mode                    : Constant
Bit rate                         : 384 Kbps
Channel(s)                       : 6 channels
Channel positions                : Front: L C R, Surround: L R, LFE
Sampling rate                    : 48.0 KHz
Stream size                      : 363 MiB (100%)

Релиз группы:

picpicpic
Для увеличения картинки щелкните мышкой по превью

Этот торрент недоступен для скачивания без регистрации, однако доступен по публичной magnet-ссылке (источники с публичных трекеров). Перед использованием ссылки прочтите, пожалуйста Пользовательское соглашение, а также как можно дольше оставайтесь на раздаче! Для того, чтобы скачать сам торрент-файл (который видит больше источников), а также для того, чтобы поблагодарить релизера, вам необходимо зарегистрироваться. Если регистрироваться лень - вы можете также попробовать скачать релиз по нашим партнерским ссылкам ниже.

[underverse.su].t30874.torrent
Трекер: Зарегистрирован   [ 13.09.2013 12:20 ]  

Статус: проверено (by HQ Underverse at 13.09.2013 12:20)
Поблагодарили: 10 человек
Тип торрента: публичный - доступные источники с открытых трекеров: 
Размер: 2,18 GB (занимает 1/2 DVDR, для записи нужно 1 болванка DVDR/RW)
 
 
Похожие темы
Форум Тема Автор Торрент Отв. Посл. сооб.
Зарубежное кино [DVDRip, Low-Res HDRip, и т.д.] Стартрек: Возмездие / Star Trek Into Darkness (Джей Джей Абрамс) [2013 г., фантастика, боевик, приключения, BDRip] VO Паукан
1 | 0

0 | 1579

87

29.08.2013 07:22

Зарубежное кино [DVDRip, Low-Res HDRip, и т.д.] Стартрек: Возмездие / Star Trek Into Darkness (Джей Джей Абрамс) [2013 г., фантастика, боевик, приключения, BDRip] Dub (любительский) 90ytr90
0 | 0

0 | 1359

36

03.09.2013 05:40

Зарубежное кино [DVDRip, Low-Res HDRip, и т.д.] Стартрек: Возмездие / Star Trek Into Darkness (Джей Джей Абрамс) [2013 г., фантастика, боевик, приключения, HDRip] Dub (любительский) 90ytr90
4 | 0

2 | 481

9

03.09.2013 07:34

Зарубежное кино [DVDRip, Low-Res HDRip, и т.д.] Стартрек: Возмездие / Star Trek Into Darkness (Дж. Дж. Абрамс / J.J. Abrams) [2013 г., фантастика, боевик, приключения, HDRip] Dub [iTunes Russia] Паукан
2 | 0

1 | 1596

82

12.09.2013 04:25

Зарубежное кино [DVDRip, Low-Res HDRip, и т.д.] Стартрек: Возмездие / Star Trek Into Darkness (Джей Джей Абрамс) [2013 г., фантастика, боевик, приключения, BDRip-AVC] DuB + Original [Лицензия] Чертёнок
29 | 5

0 | 1434

48

12.09.2013 07:16

Зарубежное кино [DVDRip, Low-Res HDRip, и т.д.] Стартрек: Возмездие / Star Trek Into Darkness (Джей Джей Абрамс / J.J. Abrams) [2013 г., фантастика, боевик, приключения, BDRip-AVC] Dub + Original 90ytr90
4 | 0

0 | 579

34

12.09.2013 15:48

Зарубежное кино [DVDRip, Low-Res HDRip, и т.д.] Стартрек: Бесконечность / Star Trek Beyond (Джастин Лин / Justin Lin) [2016 г., фантастика, боевик, триллер, приключения, BDRip-AVC] Dub + Original (Eng) + Sub (Rus, Eng) 90ytr90
30 | 2

0 | 398

10

05.11.2016 18:10

Зарубежное кино [DVDRip, Low-Res HDRip, и т.д.] Стартрек: Бесконечность / Star Trek Beyond (Джастин Лин / Justin Lin) [2016 г., фантастика, боевик, триллер, приключения, HDRip] Dub + Sub (Rus) 90ytr90
4 | 3

0 | 250

6

02.11.2016 16:48

Зарубежное кино [DVDRip, Low-Res HDRip, и т.д.] Стартрек: Бесконечность / Star Trek Beyond (Джастин Лин / Justin Lin) [2016 г., фантастика, боевик, триллер, приключения, BDRip] Dub + Sub (Rus) 90ytr90
26 | 2

0 | 229

7

02.11.2016 16:13

Зарубежное кино [DVDRip, Low-Res HDRip, и т.д.] Стартрек: Бесконечность / Star Trek Beyond (Джастин Лин / Justin Lin) [2016 г., фантастика, боевик, триллер, приключения, BDRip] Dub + Sub (Rus) 90ytr90
51 | 2

0 | 300

5

02.11.2016 16:10


Яндекс.Метрика powered by Sphinx


В Н И М А Н И Е
Сайт не распространяет и не хранит электронные версии произведений, а лишь бесплатно и без коммерческой выгоды (не требуя взамен платы,
SMS и т.д.) предоставляет доступ к создаваемому пользователями каталогу ссылок на торрент-файлы, которые содержат только списки хеш-сумм.
Убедительная просьба с жалобами обращаться напрямую к пользователю, разместившему торрент файл.

Вверх