Loading...
Error

Лучшее предложение / La migliore offerta / The Best Offer (Джузеппе Торнаторе) [2013 г., триллер, драма, BDRip] Dub + Original + Sub (Rus) HQ Underverse

Статистика раздачи
Размер:  2,17 GB   |    Зарегистрирован:  3 года 2 месяца   |    Скачан:  40 раз

Полного источника не было: 9 часов

Сидов:  0  |  0 KB/s  ]   Личеров:  0  |  0 KB/s  ]

* - сиды/пиры с внешних источников

   
 
Автор Сообщение

HQ Underverse 

11-Сен-2013 12:17

Лучшее предложение / La migliore offerta / The Best Offer


Год выпуска: 2013
Жанр: триллер, драма
Страна: США , Италия
Режиссер: Джузеппе Торнаторе
В ролях: Джим Стёрджесс, Дональд Сазерленд, Джеффри Раш, Сильвия Хукс, Филип Джексон, Лия Кебеде, Дермот Краули, Кируна Стамелл, Майлз Ричардсон, Линн Суонсон
Сюжет фильма:
Вергилий Олдман, управляющий директор ведущего аукционного дома. В секретном зале своей виллы, он собрал сотни бесценных картин из разных эпох. Однажды таинственная женщина, скрывающая свою личность, просит продать его антиквариат ее семьи. Но Олдман заинтересован не только предметами старины, его все больше очаровывает сама женщина…

  • Мировая премьера: 1 января 2013
  • Российская премьера: 1 августа 2013, «Каскад»

/
Качество видео: BDRip

Продолжительность: 02:09:32
Формат: avi
Видео: XviD, 720x304, 1616 kbps
Аудио #1: русский, дублированный [лицензия], AC3 5.1, 384 kbps
Аудио #2: английский, оригинал, AC3 5.1, 384 kbps
Субтитры: внешние, SRT, русский

Код:

General
Complete name                    : Z:\windoza-share\Лучшее предложение\La.migliore.offerta.2013.BDRip.XviD.AC3.Rus.D.Eng.O.HQ.Underverse.avi
Format                           : AVI
Format/Info                      : Audio Video Interleave
Format profile                   : OpenDML
File size                        : 2.17 GiB
Duration                         : 2h 9mn
Overall bit rate                 : 2 402 Kbps
Writing application              : VirtualDubMod 1.5.10.2 (build 2540/release)
Writing library                  : VirtualDubMod build 2540/release

Video
ID                               : 0
Format                           : MPEG-4 Visual
Format profile                   : Streaming Video@L1
Format settings, BVOP            : Yes
Format settings, QPel            : No
Format settings, GMC             : No warppoints
Format settings, Matrix          : Custom
Muxing mode                      : Packed bitstream
Codec ID                         : XVID
Codec ID/Hint                    : XviD
Duration                         : 2h 9mn
Bit rate                         : 1 617 Kbps
Width                            : 720 pixels
Height                           : 304 pixels
Display aspect ratio             : 2.35
Frame rate                       : 24.000 fps
Resolution                       : 24 bits
Colorimetry                      : 4:2:0
Scan type                        : Progressive
Bits/(Pixel*Frame)               : 0.308
Stream size                      : 1.46 GiB (67%)
Writing library                  : XviD 64

Audio #1
ID                               : 1
Format                           : AC-3
Format/Info                      : Audio Coding 3
Codec ID                         : 2000
Duration                         : 2h 9mn
Bit rate mode                    : Constant
Bit rate                         : 384 Kbps
Channel(s)                       : 6 channels
Channel positions                : Front: L C R, Surround: L R, LFE
Sampling rate                    : 48.0 KHz
Stream size                      : 356 MiB (16%)
Alignment                        : Split accross interleaves
Interleave, duration             : 42 ms (1.00 video frame)
Interleave, preload duration     : 500 ms

Audio #2
ID                               : 2
Format                           : AC-3
Format/Info                      : Audio Coding 3
Codec ID                         : 2000
Duration                         : 2h 9mn
Bit rate mode                    : Constant
Bit rate                         : 384 Kbps
Channel(s)                       : 6 channels
Channel positions                : Front: L C R, Surround: L R, LFE
Sampling rate                    : 48.0 KHz
Stream size                      : 356 MiB (16%)
Alignment                        : Split accross interleaves
Interleave, duration             : 42 ms (1.00 video frame)
Interleave, preload duration     : 500 ms

Релиз группы:

picpicpic
Для увеличения картинки щелкните мышкой по превью

Этот торрент недоступен для скачивания без регистрации, однако доступен по публичной magnet-ссылке (источники с публичных трекеров). Перед использованием ссылки прочтите, пожалуйста Пользовательское соглашение, а также как можно дольше оставайтесь на раздаче! Для того, чтобы скачать сам торрент-файл (который видит больше источников), а также для того, чтобы поблагодарить релизера, вам необходимо зарегистрироваться. Если регистрироваться лень - вы можете также попробовать скачать релиз по нашим партнерским ссылкам ниже.

[underverse.su].t30808.torrent
Трекер: Зарегистрирован   [ 11.09.2013 12:17 ]  

Статус: проверено (by HQ Underverse at 11.09.2013 12:17)
Поблагодарили: 2 человека
Тип торрента: публичный - доступные источники с открытых трекеров: 
Размер: 2,17 GB (занимает 1/2 DVDR, для записи нужно 1 болванка DVDR/RW)
 
 
Похожие темы
Форум Тема Автор Торрент Отв. Посл. сооб.
Зарубежное кино [DVDRip, Low-Res HDRip, и т.д.] Лучшее предложение / La migliore offerta / The Best Offer (Джузеппе Торнаторе) [2013 г., триллер, HDRip] Dub [Лицензия] Паукан
9 | 2

4 | 1961

123

12.01.2016 20:17

Зарубежное кино [DVDRip, Low-Res HDRip, и т.д.] Лучшее предложение / La migliore offerta / The Best Offer (Джузеппе Торнаторе) [2013 г., триллер, HDRip] Dub 90ytr90
2 | 0

0 | 346

10

09.09.2013 06:20

Зарубежное кино [DVDRip, Low-Res HDRip, и т.д.] Лучшее предложение / La migliore offerta / The Best Offer (Джузеппе Торнаторе / Giuseppe Tornatore) [2013 г., триллер, BDRip-AVC] Dub + Original 90ytr90
0 | 0

0 | 396

13

09.09.2013 06:48

Зарубежное кино [HDDVDRip / BDRip / WEB-DL / HDTV 1080/720р] Лучшее предложение / La migliore offerta / The Best Offer (Джузеппе Торнаторе) [2013 г., триллер, драма, BDRip 720p] Dub + Original 90ytr90
14 | 1

0 | 1121

15

09.09.2013 06:37


Яндекс.Метрика powered by Sphinx


В Н И М А Н И Е
Сайт не распространяет и не хранит электронные версии произведений, а лишь бесплатно и без коммерческой выгоды (не требуя взамен платы,
SMS и т.д.) предоставляет доступ к создаваемому пользователями каталогу ссылок на торрент-файлы, которые содержат только списки хеш-сумм.
Убедительная просьба с жалобами обращаться напрямую к пользователю, разместившему торрент файл.

Вверх