Loading...
Error

Уличные танцы 3: Все звезды / All Stars (Бен Грегор / Ben Gregor) [2013 г., комедия, семейный, BDRip] Dub

Статистика раздачи
Размер:  1,46 GB   |    Зарегистрирован:  3 года 2 месяца   |    Скачан:  19 раз

Полного источника не было: 1 месяц 12 дней

Сидов:  0  |  0 KB/s  ]   Личеров:  0  |  0 KB/s  ]

* - сиды/пиры с внешних источников

   
 
Автор Сообщение

Паукан Пол:Муж

11-Сен-2013 10:48

Уличные танцы 3: Все звезды / All Stars


Страна: Великобритания / Vertigo Films
Жанр: комедия, семейный
Год выпуска: 2013
Продолжительность: 01:42:49

Перевод: Профессиональный (дублированный)
Оригинальная аудиодорожка: нет
Cубтитры: нет

Режиссер: Бен Грегор / Ben Gregor

В ролях: Тео Стивенсон, Акай Осей-Мэнсфилд. Флер Хаудейк, Доминик Герман-Дэй, Амелия Кларксон, Гамал Тосифа, Эшли Дженсен, Хью Дэннис, Кевин Бишоп, Эшли Уолтерс...

Роли дублировали: Лиза Мартиросова, Александр Дасевич

Описание: Герой фильма, энергичный и бойкий Этан, объединяется со скромным профессиональным стритдансером Джейденом для участия в очередном чемпионате по уличным танцам. Только своей победой ребята смогут спасти свой молодежный клуб от закрытия. И они сделают это, во что бы то ни стало…
Сэмпл
Качество: BDRip / Blu-ray 3D 1080p
Формат: AVI

Видео: 720x384 (1.85:1), 23.976 fps, XVID ~1572 kbps avg, 0.237 bit/pixel
Аудио: Русский 48 kHz, AC3, 6 ch, 448.00 kbps Constant
Общее
Полное имя : Ulichnye.tancy.3.2013.D.BDRip_[Youtracker]_by_avproh.avi
Формат : AVI
Формат/Информация : Audio Video Interleave
Размер файла : 1,46 Гбайт
Продолжительность : 1 ч. 42 м.
Общий поток : 2029 Кбит/сек
Программа кодирования : VirtualDubModRus 1.5.10.2 (build 2542/release)
Библиотека кодирования : VirtualDubMod build 2542/release

Видео
Идентификатор : 0
Формат : MPEG-4 Visual
Профиль формата : Advanced Simple@L5
Параметр BVOP формата : 1
Параметр QPel формата : Нет
Параметр GMC формата : Без точки перехода
Параметр матрицы формата : Выборочная
Идентификатор кодека : XVID
Идентификатор кодека/Подсказка : XviD
Продолжительность : 1 ч. 42 м.
Битрейт : 1572 Кбит/сек
Ширина : 720 пикселей
Высота : 384 пикселя
Соотношение сторон : 1,85:1
Частота кадров : 23,976 кадра/сек
Цветовое пространство : YUV
Субдискретизация насыщенности : 4:2:0
Битовая глубина : 8 бит
Тип развёртки : Прогрессивная
Метод сжатия : С потерями
Бит/(Пиксели*Кадры) : 0.237
Размер потока : 1,13 Гбайт (77%)
Библиотека кодирования : XviD 73

Аудио
Идентификатор : 1
Формат : AC-3
Формат/Информация : Audio Coding 3
Расширение режима : CM (complete main)
Параметр Endianness формата : Big
Идентификатор кодека : 2000
Продолжительность : 1 ч. 42 м.
Вид битрейта : Постоянный
Битрейт : 448 Кбит/сек
Каналы : 6 каналов
Расположение каналов : Front: L C R, Side: L R, LFE
Частота : 48,0 КГц
Битовая глубина : 16 бит
Метод сжатия : С потерями
Размер потока : 329 Мбайт (22%)
Выравнивание : Разделение по промежуткам
Продолжительность промежутка : 42 мс. (1,00 видеокадр)
Время предзагрузки промежутка : 500 мс.
pic pic pic
Для увеличения картинки щелкните мышкой по превью

Этот торрент недоступен для скачивания без регистрации, однако доступен по публичной magnet-ссылке (источники с публичных трекеров). Перед использованием ссылки прочтите, пожалуйста Пользовательское соглашение, а также как можно дольше оставайтесь на раздаче! Для того, чтобы скачать сам торрент-файл (который видит больше источников), а также для того, чтобы поблагодарить релизера, вам необходимо зарегистрироваться. Если регистрироваться лень - вы можете также попробовать скачать релиз по нашим партнерским ссылкам ниже.

[underverse.su].t30807.torrent
Трекер: Зарегистрирован   [ 11.09.2013 10:48 ]  

Статус: проверено (by Паукан at 11.09.2013 10:48)
Поблагодарили: 1 человек
Тип торрента: публичный - доступные источники с открытых трекеров: 
Размер: 1,46 GB (занимает 1/3 DVDR, для записи нужно 1 болванка DVDR/RW)
 
 
Похожие темы
Форум Тема Автор Торрент Отв. Посл. сооб.
Зарубежное кино [DVDRip, Low-Res HDRip, и т.д.] Уличные танцы 3D / Street Dance 3D (Макс Джива, Дания Пасквини) [2010 г., мелодрама, музыка, ..., DVDRip] dj_solo
0 | 0

0 | 875

3

31.08.2010 16:41

Зарубежное кино [DVDRip, Low-Res HDRip, и т.д.] Уличные танцы 2 / StreetDance 2 (Макс Джива, Дания Пасквини) [2012 г., мелодрама, музыка, HDRip] [Лицензия] WeaSel
0 | 1

0 | 765

29

25.07.2012 16:17

Зарубежное кино [HDDVDRip / BDRip / WEB-DL / HDTV 1080/720р] Уличные танцы 2 / StreetDance 2 (Макс Джива, Дания Пасквини) [2012 г., мелодрама, музыка, BDRip 1080p] Greshnik
0 | 0

2 | 1067

4

28.07.2012 03:47


Яндекс.Метрика powered by Sphinx


В Н И М А Н И Е
Сайт не распространяет и не хранит электронные версии произведений, а лишь бесплатно и без коммерческой выгоды (не требуя взамен платы,
SMS и т.д.) предоставляет доступ к создаваемому пользователями каталогу ссылок на торрент-файлы, которые содержат только списки хеш-сумм.
Убедительная просьба с жалобами обращаться напрямую к пользователю, разместившему торрент файл.

Вверх