Loading...
Error

Высота 89 (Вячеслав Никифоров) [2004 г., военный, драма, SATRip ]

Статистика раздачи
Размер:  1,36 GB   |    Зарегистрирован:  3 года 2 месяца   |    Скачан:  12 раз

Полного источника не было: 8 месяцев

Сидов:  0  |  0 KB/s  ]   Личеров:  0  |  0 KB/s  ]

* - сиды/пиры с внешних источников

   
 
Автор Сообщение

vasilich619 Пол:Муж

10-Сен-2013 22:47

Высота 89


Год выпуска: 2004
Жанр: военный, драма
Страна: Россия , Беларусь
Режиссер: Вячеслав Никифоров
В ролях: Виктория Толстоганова, Алексей Чадов, Владимир Яглыч, Андрей Голубев, Анатолий Кот, Геннадий Гарбук, Анатолий Гущин, Анна Казючиц, Виталий Котовицкий, Дмитрий Лабуш
Сюжет фильма:
Сюжет картины построен вокруг борьбы за одну из высот на границе бывшего СССР. Время действия — 1944 год. Переломный момент в освобождении территории Советского Союза от фашистов. В полк прибывает пополнение. Кадровый офицер и бывший уголовник, чемпионка по стрельбе и военный переводчик — Война свела их всех на безымянной высоте.
Здесь, в белорусских лесах, одна начнет дуэль с немецким снайпером, другой поведет на смерть роту разведчиков, но прежде они встретят любовь, но для многих эти горькие дни навсегда останутся самыми счастливыми в жизни.



Качество видео: SATRip

Продолжительность: 01:44:11
Формат: avi
Видео: XviD, 704x384, 1734 kbps
Аудио: MP3 2.0, 128 kbps
Язык: Русский
Перевод:Не требуется

Код:

General
Complete name                    : E:\Фильмы\Военные\Высота 89.avi
Format                           : AVI
Format/Info                      : Audio Video Interleave
File size                        : 1.36 GiB
Duration                         : 1h 44mn
Overall bit rate                 : 1 872 Kbps
Writing application              : VirtualDubMod 1.5.10.2 (build 2540/release)
Writing library                  : VirtualDubMod build 2540/release

Video
ID                               : 0
Format                           : MPEG-4 Visual
Format profile                   : Streaming Video@L1
Format settings, BVOP            : Yes
Format settings, QPel            : No
Format settings, GMC             : No warppoints
Format settings, Matrix          : Default (MPEG)
Codec ID                         : XVID
Codec ID/Hint                    : XviD
Duration                         : 1h 44mn
Bit rate                         : 1 735 Kbps
Width                            : 704 pixels
Height                           : 384 pixels
Display aspect ratio             : 16/9
Frame rate                       : 25.000 fps
Resolution                       : 24 bits
Colorimetry                      : 4:2:0
Scan type                        : Progressive
Bits/(Pixel*Frame)               : 0.257
Stream size                      : 1.26 GiB (93%)
Writing library                  : XviD 1.2.1 (UTC 2008-12-04)

Audio
ID                               : 1
Format                           : MPEG Audio
Format version                   : Version 1
Format profile                   : Layer 3
Codec ID                         : 55
Codec ID/Hint                    : MP3
Duration                         : 1h 44mn
Bit rate mode                    : Constant
Bit rate                         : 128 Kbps
Channel(s)                       : 2 channels
Sampling rate                    : 48.0 KHz
Resolution                       : 16 bits
Stream size                      : 95.4 MiB (7%)
Alignment                        : Aligned on interleaves
Interleave, duration             : 40 ms (1.00 video frame)
Interleave, preload duration     : 504 ms
Writing library                  : LAME3.98r
Encoding settings                : -m s -V 4 -q 2 -lowpass 17 -b 128

picpicpicpicpicpicpicpicpicpic
Для увеличения картинки щелкните мышкой по превью

Этот торрент недоступен для скачивания без регистрации, однако доступен по публичной magnet-ссылке (источники с публичных трекеров). Перед использованием ссылки прочтите, пожалуйста Пользовательское соглашение, а также как можно дольше оставайтесь на раздаче! Для того, чтобы скачать сам торрент-файл (который видит больше источников), а также для того, чтобы поблагодарить релизера, вам необходимо зарегистрироваться. Если регистрироваться лень - вы можете также попробовать скачать релиз по нашим партнерским ссылкам ниже.

[underverse.su].t30798.torrent
Трекер: Зарегистрирован   [ 10.09.2013 22:47 ]  

Статус: проверено (by Чертёнок at 11.09.2013 07:27)
Поблагодарили: пока никто не поблагодарил...
Тип торрента: публичный - доступные источники с открытых трекеров: 
Размер: 1,36 GB (занимает 0,31 DVDR, для записи нужно 1 болванка DVDR/RW)
 
 

Чертёнок Пол:Муж

11-Сен-2013 07:29

Поменял обложку,как ты заливаешь не смотришь что получается? постоянно исправляю за тебя. :(

11-Сен-2013 09:21

Топик был перенесен из форума Наше кино HDTV в форум Наше кино [DVDRip, Low-Res HDRip, и т.д.]


Чертёнок
 

Яндекс.Метрика powered by Sphinx


В Н И М А Н И Е
Сайт не распространяет и не хранит электронные версии произведений, а лишь бесплатно и без коммерческой выгоды (не требуя взамен платы,
SMS и т.д.) предоставляет доступ к создаваемому пользователями каталогу ссылок на торрент-файлы, которые содержат только списки хеш-сумм.
Убедительная просьба с жалобами обращаться напрямую к пользователю, разместившему торрент файл.

Вверх