Loading...
Error

Истребители (Штурмовики) (12 из 12 серий) 2013 (Алексей Мурадов) [2013 г., Военный фильм, драма, ВОВ, WEB-DLRip]

Статистика раздачи
Размер:  4,39 GB   |    Зарегистрирован:  3 года 8 месяцев   |    Скачан:  20 раз

Полного источника не было: 11 месяцев

Сидов:  0  |  0 KB/s  ]   Личеров:  0  |  0 KB/s  ]

* - сиды/пиры с внешних источников

   
 
Автор Сообщение

vasilich619 Пол:Муж

07-Сен-2013 23:16

Истребители - / Штурмовики


Год выпуска: 2013
Жанр: драма, военный
Страна: Россия
Режиссер: Алексей Мурадов
В ролях: Екатерина Вилкова, Дмитрий Дюжев, Николай Козак, Елена Яковлева, Олег Фомин, Мария Андреева, Антон Соколов, Дмитрий Арбенин, Екатерина Рябова, Владимир Большов
Сюжет фильма:
В разгаре Великая Отечественная Война. Молодые летчики Леонид и Борис по прибытии в летную школу узнают, что они зачислены в авиационный полк и в ближайшее время их отправят на фронт. Первое же боевое задание герои проваливают – Леонид, вместо того чтобы прикрывать штурмовиков, вырывается из строя и идет в атаку на немецкие «мессеры», в результате чего оборонительный строй нарушается, штурмовики остаются без защиты и, попав под огонь немецких истребителей, погибают. Задание провалено. Командуют отступление. Леонида и Бориса отправляют в дивизию, где их ждет трибунал и расстрел. Их уже выводят под конвоем, когда на военный аэродром прилетает командир штурмового отряда и лично ходатайствует о том, чтобы Борис и Леонид вернулись в строй. Теперь нашим героям придется выполнять роль штурмовиков, быть ответственными и бесстрашными и следовать приказам любой сложности без колебаний и страха за свои жизни...

]
Качество видео: WEB-DLRip

Продолжительность: 00:42:59
Формат: mp4
Видео: MPEG-4 Visual, 640x360, 1079 kbps
Аудио: AAC LC 2.0, 127 kbps
Язык: русский
Перевод: не требуется

Код:

General
Complete name                    : F:\Downloads\Истребители.2013.WEB-DLRip\Истребители.2013.WEB-DLRip.e01-12 mp4
Format                           : MPEG-4
Format profile                   : Base Media / Version 2
Codec ID                         : mp42
File size                        : 372 MiB
Duration                         : 42mn 59s
Overall bit rate                 : 1 210 Kbps
Encoded date                     : UTC 2013-04-29 20:37:51
Tagged date                      : UTC 2013-04-29 20:37:51

Video
ID                               : 201
Format                           : MPEG-4 Visual
Format profile                   : Streaming Video@L1
Format settings, BVOP            : No
Format settings, QPel            : No
Format settings, GMC             : No warppoints
Format settings, Matrix          : Default (H.263)
Codec ID                         : 20
Duration                         : 42mn 59s
Bit rate mode                    : Variable
Bit rate                         : 1 080 Kbps
Maximum bit rate                 : 4 428 Kbps
Width                            : 640 pixels
Height                           : 360 pixels
Display aspect ratio             : 16/9
Frame rate mode                  : Variable
Frame rate                       : 24.966 fps
Minimum frame rate               : 2.500 fps
Maximum frame rate               : 25.000 fps
Original frame rate              : 25.000 fps
Resolution                       : 24 bits
Colorimetry                      : 4:2:0
Scan type                        : Progressive
Bits/(Pixel*Frame)               : 0.188
Stream size                      : 332 MiB (89%)
Writing library                  : XviD 1.2.1 (UTC 2008-12-04)
Encoded date                     : UTC 2013-04-29 20:37:51
Tagged date                      : UTC 2013-04-29 20:38:21

Audio
ID                               : 101
Format                           : AAC
Format/Info                      : Advanced Audio Codec
Format version                   : Version 4
Format profile                   : LC
Format settings, SBR             : No
Codec ID                         : 40
Duration                         : 42mn 59s
Bit rate mode                    : Variable
Bit rate                         : 128 Kbps
Maximum bit rate                 : 155 Kbps
Channel(s)                       : 2 channels
Channel positions                : L R
Sampling rate                    : 44.1 KHz
Resolution                       : 16 bits
Stream size                      : 39.4 MiB (11%)
Encoded date                     : UTC 2013-04-29 20:38:18
Tagged date                      : UTC 2013-04-29 20:38:21

picpicpicpicpicpicpic
Для увеличения картинки щелкните мышкой по превью

Этот торрент недоступен для скачивания без регистрации, однако доступен по публичной magnet-ссылке (источники с публичных трекеров). Перед использованием ссылки прочтите, пожалуйста Пользовательское соглашение, а также как можно дольше оставайтесь на раздаче! Для того, чтобы скачать сам торрент-файл (который видит больше источников), а также для того, чтобы поблагодарить релизера, вам необходимо зарегистрироваться. Если регистрироваться лень - вы можете также попробовать скачать релиз по нашим партнерским ссылкам ниже.

[underverse.su].t30714.torrent
Трекер: Зарегистрирован   [ 07.09.2013 23:16 ]  

Статус: проверено (by Чертёнок at 08.09.2013 08:04)
Поблагодарили: 1 человек
Тип торрента: публичный - доступные источники с открытых трекеров: 
Размер: 4,39 GB (занимает 1 DVDR, для записи нужно 2 болванки DVDR/RW)
 
 
Похожие темы
Форум Тема Автор Торрент Отв. Посл. сооб.
Зарубежное кино [DVDRip, Low-Res HDRip, и т.д.] Истребители духов / Ghost Sweepers (Шин Чон Вон) [2012 г., мистика, комедия, HDRip] DVO (den904, DeadSno) 90ytr90
0 | 0

0 | 1522

16

01.01.2013 08:48

Зарубежное кино [DVDRip, Low-Res HDRip, и т.д.] Истребитель зомби / Хуан - истребитель кубинских зомби / Juan de los Muertos (Алехандро Бругес) [2011 г., ужасы, комедия, HDRip] Dub (чистый звук) 90ytr90
0 | 1

0 | 1166

9

24.04.2013 17:02

xUSSR сериалы Истребители / Серии: 1-12 (12) (Алексей Мурадов) [2013, Военный, драма , SATRip] nemos
0 | 0

3 | 1563

51

25.04.2013 14:08

xUSSR сериалы Истребители (2 сезон /cерии 1-12 из 12) (Зиновий Ройзман) [2015 г., военный, драма, WEB-DLRip] nemos
14 | 0

1 | 1200

26

05.05.2015 22:08

Научно-популярные фильмы Истребитель пятого поколения [2013г., Документальный, DVBRip-AVC] Печаль'ka
1 | 0

1 | 814

18

24.09.2013 14:13

xUSSR сериалы [BD / Remux / BDRip / WEB-DL / HDTV 1080/720р] Истребители / Серии 1-12 (12) (Алексей Мурадов) [2013 г., драма, военный, WEBDLRip 720p] Чертёнок
1 | 3

0 | 1305

50

25.04.2013 19:14

xUSSR сериалы [BD / Remux / BDRip / WEB-DL / HDTV 1080/720р] Истребители (2 сезон /cерии 1-12 из 12) (Зиновий Ройзман) [2015 г., военный, драма, WEB-DL 1080p] nemos
2 | 0

2 | 1276

18

31.10.2015 10:30


Яндекс.Метрика powered by Sphinx


В Н И М А Н И Е
Сайт не распространяет и не хранит электронные версии произведений, а лишь бесплатно и без коммерческой выгоды (не требуя взамен платы,
SMS и т.д.) предоставляет доступ к создаваемому пользователями каталогу ссылок на торрент-файлы, которые содержат только списки хеш-сумм.
Убедительная просьба с жалобами обращаться напрямую к пользователю, разместившему торрент файл.

Вверх