Loading...
Error

Главный Калибр (Михаил Шевчук) [2006 г., военный, приключения, боевик, DVDRip]

Статистика раздачи
Размер:  1,37 GB   |    Зарегистрирован:  3 года 3 месяца   |    Скачан:  3 раза

Полного источника не было: 3 года 1 месяц

Сидов:  0  |  0 KB/s  ]   Личеров:  0  |  0 KB/s  ]

* - сиды/пиры с внешних источников

   
 
Автор Сообщение

vasilich619 Пол:Муж

07-Сен-2013 22:00

Главный Калибр


Год выпуска: 2006
Жанр: военный, приключения, боевик
Страна: Россия
Режиссер: Михаил Шевчук
В ролях: Юрий Сысоев, Марат Башаров, Александр Соловьев, Глафира Тарханова, Эдуард Федашко, Виктор Бунаков, Виктор Раков, Дмитрий Марьянов, Елена Ксенофонтова, Юрий Чернов...
Сюжет фильма:
1943 год. Советское командование отправляет в тыл врага разведгруппу во главе с капитаном Тенегиным. Их задача — уничтожить секретную лабораторию, где фашисты проводят опыты над военнопленными с целью создания препарата, способного во много раз увеличить силу и выносливость человека. Но на пути бесстрашного отряда стоят солдаты рейха, уже испытавшие на себе действие препарата…

]
Качество видео: DVDRip

Продолжительность: 01:40:29
Формат: avi
Видео: XviD, 640x352, 1687 kbps
Аудио: AC3 2.0, 256 kbps
Язык: русский
Перевод: не требуется

Код:

General
Complete name                    : F:\Downloads\Главный калибер.2006.DVDRip..avi
Format                           : AVI
Format/Info                      : Audio Video Interleave
File size                        : 1.37 GiB
Duration                         : 1h 40mn
Overall bit rate                 : 1 950 Kbps
Writing application              : VirtualDubMod 1.5.4.1 (build 2178/release)
Writing library                  : VirtualDubMod build 2178/release

Video
ID                               : 0
Format                           : MPEG-4 Visual
Format profile                   : Streaming Video@L1
Format settings, BVOP            : Yes
Format settings, QPel            : No
Format settings, GMC             : No warppoints
Format settings, Matrix          : Custom
Codec ID                         : XVID
Codec ID/Hint                    : XviD
Duration                         : 1h 40mn
Bit rate                         : 1 687 Kbps
Width                            : 640 pixels
Height                           : 352 pixels
Display aspect ratio             : 16/9
Frame rate                       : 25.000 fps
Resolution                       : 24 bits
Colorimetry                      : 4:2:0
Scan type                        : Progressive
Bits/(Pixel*Frame)               : 0.300
Stream size                      : 1.18 GiB (87%)
Writing library                  : XviD 63

Audio
ID                               : 1
Format                           : AC-3
Format/Info                      : Audio Coding 3
Codec ID                         : 2000
Duration                         : 1h 40mn
Bit rate mode                    : Constant
Bit rate                         : 256 Kbps
Channel(s)                       : 2 channels
Channel positions                : L R
Sampling rate                    : 48.0 KHz
Video delay                      : 24ms
Stream size                      : 184 MiB (13%)
Alignment                        : Split accross interleaves
Interleave, duration             : 96 ms (2.40 video frames)
Interleave, preload duration     : 96 ms

picpicpicpicpicpicpicpic
Для увеличения картинки щелкните мышкой по превью

Этот торрент недоступен для скачивания без регистрации, однако доступен по публичной magnet-ссылке (источники с публичных трекеров). Перед использованием ссылки прочтите, пожалуйста Пользовательское соглашение, а также как можно дольше оставайтесь на раздаче! Для того, чтобы скачать сам торрент-файл (который видит больше источников), а также для того, чтобы поблагодарить релизера, вам необходимо зарегистрироваться. Если регистрироваться лень - вы можете также попробовать скачать релиз по нашим партнерским ссылкам ниже.

[underverse.su].t30713.torrent
Трекер: Зарегистрирован   [ 07.09.2013 22:00 ]  

Статус: проверено (by Чертёнок at 08.09.2013 08:14)
Поблагодарили: 2 человека
Тип торрента: публичный - доступные источники с открытых трекеров: 
Размер: 1,37 GB (занимает 0,31 DVDR, для записи нужно 1 болванка DVDR/RW)
 
 

08-Сен-2013 08:16

Топик был перенесен из форума Другое HD DVD, Blu-Ray в форум Наше кино [DVDRip, Low-Res HDRip, и т.д.]


Чертёнок
 

Яндекс.Метрика powered by Sphinx


В Н И М А Н И Е
Сайт не распространяет и не хранит электронные версии произведений, а лишь бесплатно и без коммерческой выгоды (не требуя взамен платы,
SMS и т.д.) предоставляет доступ к создаваемому пользователями каталогу ссылок на торрент-файлы, которые содержат только списки хеш-сумм.
Убедительная просьба с жалобами обращаться напрямую к пользователю, разместившему торрент файл.

Вверх