Loading...
Error

Станица / Cерии 1-12 (12) (Владимир Шевельков) [2013 г., детектив, драма, криминальный, SatRip]

Статистика раздачи
Размер:  7,78 GB   |    Зарегистрирован:  3 года 2 месяца   |    Скачан:  24 раза

Полного источника не было: 5 месяцев 13 дней

Сидов:  0  |  0 KB/s  ]   Личеров:  0  |  0 KB/s  ]

* - сиды/пиры с внешних источников

   
 
Автор Сообщение

umatkot 

06-Сен-2013 12:16

Станица
Год выпуска: 2013
Жанр: детектив, драма, криминальный
Страна: Россия
Режиссер: Владимир Шевельков
В ролях: Нина Усатова, Сергей Никоненко, Евгений Сидихин, Мария Шукшина, Максим Дрозд, Ирина Ефремова, Владимир Шевельков, Мария Баева, Дмитрий Оленцов, Юрий Коноплянников, Руслан Ягудин, Александра Лупашко, Андрей Стоянов, Николай Добрынин, Игорь Филиппов
Сюжет фильма:
Описание: 2010 год. Кубанская станица Лощинская, оазис процветания среди кризисной разрухи: плотно засеяны поля, знатно ухожены фермы, население трудоустроено и сыто. Что это - колхозный капитализм или когда-то обещанный коммунизм? Ни то и ни другое. Это - блистательный семейный бизнес лихой казачки Надежды Волковой, крестной мамы здешних мест. И, как всякий успешный бизнес, поднятый с нуля в 90-е, он замешан на крови...
В один прекрасный день в станицу Лощинская приезжает Марина Горобец, в недавнем прошлом – замужняя женщина, директор молочного хозяйства в соседнем районе, а нынче - безработная и разведенная красавица в расцвете лет. Приезжает она, чтобы навестить дочь Светлану, которая учится в местном профучилище; тут-то и выясняется, что девочки в станице нет. Директор училища, местные милиционеры, одноклассницы Светы на прямые вопросы не отвечают, ведут себя агрессивно, словом, явно что-то скрывают.
Не добившись помощи от официальных структур, Марина решает искать дочь самостоятельно. Она еще не знает, что на самом деле станицей
руководит структура неофициальная - клан бизнесменов Волковых.
Качество видео: SatRip
Продолжительность: 12 х ~ 00:50:00
Формат: AVI
Видео: XviD, 720x384, XviD build 65 ~1500 kbps avg
Аудио: русский, МР3, 48 kHz, 2ch, 192 Кбит/с

Код:

General
Complete name                    : D:\underverse\Станица - сериал 2013\Stanica.07.2013.SATRip.RiperAM.avi
Format                           : AVI
Format/Info                      : Audio Video Interleave
File size                        : 608 MiB
Duration                         : 50mn 56s
Overall bit rate                 : 1 667 Kbps
Writing application              : VirtualDubMod 1.5.10.3 | www.virtualdub-fr.org || (build 2550/release)
Writing library                  : VirtualDubMod build 2550/release

Video
ID                               : 0
Format                           : MPEG-4 Visual
Format profile                   : Advanced Simple@L5
Format settings, BVOP            : Yes
Format settings, QPel            : No
Format settings, GMC             : No warppoints
Format settings, Matrix          : Default (MPEG)
Codec ID                         : XVID
Codec ID/Hint                    : XviD
Duration                         : 50mn 56s
Bit rate                         : 1 530 Kbps
Width                            : 720 pixels
Height                           : 384 pixels
Display aspect ratio             : 1.913
Frame rate                       : 25.000 fps
Color space                      : YUV
Chroma subsampling               : 4:2:0
Bit depth                        : 8 bits
Scan type                        : Progressive
Bits/(Pixel*Frame)               : 0.236
Stream size                      : 557 MiB (92%)
Writing library                  : XviD 65

Audio
ID                               : 1
Format                           : MPEG Audio
Format version                   : Version 1
Format profile                   : Layer 3
Mode                             : Joint stereo
Codec ID                         : 55
Codec ID/Hint                    : MP3
Duration                         : 50mn 56s
Bit rate mode                    : Constant
Bit rate                         : 192 Kbps
Channel(s)                       : 2 channels
Sampling rate                    : 48.0 KHz
Stream size                      : 46.6 MiB (8%)
Alignment                        : Aligned on interleaves
Interleave, duration             : 40 ms (1.00 video frame)
Interleave, preload duration     : 504 ms
Writing library                  : LAME3.90.3ЄЄЄЄЄЄЄЄЄЄ
picpicpicpic
Для увеличения картинки щелкните мышкой по превью

Этот торрент недоступен для скачивания без регистрации, однако доступен по публичной magnet-ссылке (источники с публичных трекеров). Перед использованием ссылки прочтите, пожалуйста Пользовательское соглашение, а также как можно дольше оставайтесь на раздаче! Для того, чтобы скачать сам торрент-файл (который видит больше источников), а также для того, чтобы поблагодарить релизера, вам необходимо зарегистрироваться. Если регистрироваться лень - вы можете также попробовать скачать релиз по нашим партнерским ссылкам ниже.

[underverse.su].t30673.torrent
Трекер: Зарегистрирован   [ 11.09.2013 10:34 ]  

Статус: проверено (by Чертёнок at 11.09.2013 10:34)
Поблагодарили: 1 человек
Тип торрента: публичный - доступные источники с открытых трекеров: 
Размер: 7,78 GB (занимает 1,78 DVDR, для записи нужно 2 болванки DVDR/RW)
 
 


Последний раз редактировалось: umatkot (07.09.2013 06:23), всего редактировалось 1 раз

Чертёнок Пол:Муж

06-Сен-2013 12:42

Нету обложки скриншот продолжительность? тех.данные аудио? сколько серий всего? :twisted:

Чертёнок Пол:Муж

06-Сен-2013 16:32

Всё сам зделал теперь только новые серии добавляй! :)


Последний раз редактировалось: Чертёнок (07.09.2013 09:09), всего редактировалось 1 раз

umatkot 

07-Сен-2013 06:31

Спасибо, друг, я просто в первый раз вообще релиз сделал за всю свою жизнь))) Скоро все 12 будут...

Чертёнок Пол:Муж

10-Сен-2013 08:46

Добавил 3 серии. :)

Яндекс.Метрика powered by Sphinx


В Н И М А Н И Е
Сайт не распространяет и не хранит электронные версии произведений, а лишь бесплатно и без коммерческой выгоды (не требуя взамен платы,
SMS и т.д.) предоставляет доступ к создаваемому пользователями каталогу ссылок на торрент-файлы, которые содержат только списки хеш-сумм.
Убедительная просьба с жалобами обращаться напрямую к пользователю, разместившему торрент файл.

Вверх