Loading...
Error

Посредник / Грач [01-12 из 12] (Андрей Волгин, Максим Кондратенко) [2012 г., триллер, детектив, HDTVRip-AVC]

Статистика раздачи
Размер:  7,79 GB   |    Зарегистрирован:  3 года 2 месяца   |    Скачан:  8 раз

Полного источника не было: 3 месяца 24 дня

Сидов:  0  |  0 KB/s  ]   Личеров:  0  |  0 KB/s  ]

* - сиды/пиры с внешних источников

   
 
Автор Сообщение

Чертёнок Пол:Муж

03-Сен-2013 15:33

Посредник / Грач


Оригинальное название: Посредник / Грач
Год выпуска: 2012
Жанр: Триллер, детектив
Режиссер: Андрей Волгин, Максим Кондратенко
В ролях: Павел Трубинер, Светлана Иванова, Игорь Старосельцев, Алексей Лонгин, Наташа Фенкина, Вадим Демчог, Иван Охлобыстин, Мария Рыщенкова, Ирина Вилкова, Дарья Сазонова, Алексей Мясников, Александр Орловский, Александр Баширов, Евгения Бордзиловская, Екатерина Молоховская, Никита Емшанов, Иулиана Куликова, Дмитрий Мазуров, Елена Новикова (II), Нелли Пшенная, Максим Костромыкин, Виктория Куликова, Елена Гольянова, Федор Дунаевский

О фильме: По мотивам французского 6-серийного телефильма "Греко".
Во время операции по освобождению заложника майор МВД Сергей Грачев, по прозвищу "Грач" получает пулю в голову. Он чудом избегает смерти, несмотря на то, что врачи не смогли извлечь пулю.
Ранение полностью меняет жизнь Грача. Он пережил клиническую смерть, видел таинственный «тоннель», о котором рассказывают многие умирающие. И, самое главное, Грачу начали являться призраки - духи убитых людей, чьи убийцы до сих пор не найдены.
Отвечая на молчаливые просьбы умерших, используя их подсказки, Грач поднимает и расследует старые, безнадежные дела...



Выпущено: Россия, К/к UMP (United Multimedia Projects) по заказу Первого канала
Продолжительность: 12 x ~ 00:45:00
Перевод: Не требуется
Качество: HDTVRip-AVC
Формат: MPEG-4
Аудио кодек: AC3
Видео: AVC, ~ 1627 Кбит/с, 1024x576, 25 000 кадров/сек
Аудио : 2 ch, 256 Кбит/с, 48,0 КГц

Семпл
Полное имя : E:TorrentPosrednik.(Grach).2012.HDTVRip-AVC.Metla111Posrednik.(Grach).04.2012.HDTVRip-AVC.Metla111.mkv
Формат : Matroska
Версия формата : Version 2
Размер файла : 650 Мбайт
Продолжительность : 49 м.
Общий поток : 1852 Кбит/сек
Дата кодирования : UTC 2013-02-06 10:29:59
Программа кодирования : mkvmerge v5.8.0 ('No Sleep / Pillow') built on Sep 2 2012 15:37:04
Библиотека кодирования : libebml v1.2.3 + libmatroska v1.3.0

Видео
Идентификатор : 1
Формат : AVC
Формат/Информация : Advanced Video Codec
Профиль формата : High@L4.0
Параметр CABAC формата : Да
Параметр ReFrames формата : 12 кадров
Идентификатор кодека : V_MPEG4/ISO/AVC
Продолжительность : 49 м.
Битрейт : 1594 Кбит/сек
Ширина : 1024 пикселя
Высота : 576 пикселей
Соотношение сторон : 16:9
Частота кадров : 25,000 кадров/сек
Цветовое пространство : YUV
Субдискретизация насыщенности : 4:2:0
Битовая глубина : 8 бит
Тип развёртки : Прогрессивная
Бит/(Пиксели*Кадры) : 0.108
Размер потока : 548 Мбайт (84%)
Библиотека кодирования : x264 core 125 r2208 d9d2288
Настройки программы : cabac=1 / ref=12 / deblock=1:-3:-3 / analyse=0x3:0x113 / me=umh / subme=9 / psy=1 / psy_rd=1.00:0.20 / mixed_ref=1 / me_range=32 / chroma_me=1 / trellis=2 / 8x8dct=1 / cqm=0 / deadzone=21,11 / fast_pskip=1 / chroma_qp_offset=-3 / threads=6 / lookahead_threads=1 / sliced_threads=0 / nr=0 / decimate=0 / interlaced=0 / bluray_compat=0 / constrained_intra=0 / bframes=10 / b_pyramid=2 / b_adapt=2 / b_bias=0 / direct=3 / weightb=1 / open_gop=0 / weightp=2 / keyint=250 / keyint_min=25 / scenecut=40 / intra_refresh=0 / rc=2pass / mbtree=0 / bitrate=1594 / ratetol=1.0 / qcomp=0.70 / qpmin=0 / qpmax=69 / qpstep=4 / cplxblur=20.0 / qblur=0.5 / ip_ratio=1.40 / pb_ratio=1.30 / aq=1:1.00
Default : Да
Forced : Нет
Основные цвета : BT.709-5, BT.1361, IEC 61966-2-4, SMPTE RP177
Характеристики трансфера : BT.709-5, BT.1361
Коэффициенты матрицы : BT.709-5, BT.1361, IEC 61966-2-4 709, SMPTE RP177

Аудио
Идентификатор : 2
Формат : AC-3
Формат/Информация : Audio Coding 3
Расширение режима : CM (complete main)
Идентификатор кодека : A_AC3
Продолжительность : 49 м.
Вид битрейта : Постоянный
Битрейт : 256 Кбит/сек
Каналы : 2 канала
Расположение каналов : Front: L R
Частота : 48,0 КГц
Битовая глубина : 16 бит
Метод сжатия : С потерями
Размер потока : 89,9 Мбайт (14%)
Default : Да
Forced : Нет
Павел Трубинер убежден, что мистика в нашей жизни все-таки присутствует. Павел помнит историю, которая приключилась с ним в четыре года: "Я обожал, лежа на животе, скатываться на санках с ледяной горки, выходившей на проезжую часть, - вспоминает актер. - Однажды, уже начав спуск, я вдруг увидел, что на дорогу выезжает грузовик. По логике через несколько секунд я должен был угодить под колеса. Но на середине горки вдруг непостижимым образом к ней... прилип. А когда машина проехала - покатился дальше. Прошло уже 30 лет, а я и теперь не могу объяснить, как спасся".
Роль Ивана Охлобыстина – одна из ключевых для развития детективного сюжета телесериала. В фильме он здорово преобразился: перед каждой съемкой гримеры делали Ивану "пластическую операцию", нанося на лицо шрамы из латекса. Это последствия страшной аварии, в которую когда-то попал его герой. Но вместе с уродством он приобрел способность отличать от обычных людей потенциальных преступников, которых и начинает убивать. Прозвище героя Охлобыстина – Доктор. Он получил его потому, что наносил на лоб каждой жертвы крестик зеленкой. Доктор так же, как и Грач, слышит голоса призраков. В этом они с Грачом похожи, а потому хорошо чувствуют друг друга. Охлобыстин, готовясь к роли, пообщался с врачами-психотерапевтами, которые рассказали ему об особенностях поведения маньяков-убийц. Кроме того, для создания образа Доктора Иван использовал историю битцевского маньяка, который c 1992 по 2006 год убил около 60 человек.
picpicpicpic
Для увеличения картинки щелкните мышкой по превью

Этот торрент недоступен для скачивания без регистрации, однако доступен по публичной magnet-ссылке (источники с публичных трекеров). Перед использованием ссылки прочтите, пожалуйста Пользовательское соглашение, а также как можно дольше оставайтесь на раздаче! Для того, чтобы скачать сам торрент-файл (который видит больше источников), а также для того, чтобы поблагодарить релизера, вам необходимо зарегистрироваться. Если регистрироваться лень - вы можете также попробовать скачать релиз по нашим партнерским ссылкам ниже.

[underverse.su].t30602.torrent
Трекер: Зарегистрирован   [ 03.09.2013 15:33 ]  

Статус: проверено (by Чертёнок at 03.09.2013 15:34)
Поблагодарили: 1 человек
Тип торрента: публичный - доступные источники с открытых трекеров: 
Размер: 7,79 GB (занимает 1,78 DVDR, для записи нужно 2 болванки DVDR/RW)
 
 
Похожие темы
Форум Тема Автор Торрент Отв. Посл. сооб.
Зарубежное кино [DVDRip, Low-Res HDRip, и т.д.] Посредник / The go-between (Пит Трэвис) [2015 г., драма, WEBRip] VO + Original makkol
11 | 0

0 | 562

27

05.10.2015 22:07

xUSSR сериалы Посредник / Грач / Серии: 1-12 (12) (Андрей Волгин, Максим Кондратенко) [2012, Детектив, мистика, SATRip] nemos
0 | 0

0 | 1294

25

30.12.2012 16:56

xUSSR сериалы Посредник / Серии 01-04 из 04 (Игорь Москвитин) [2013 г., остросюжетный сериал, SATRip] Чертёнок
1 | 0

1 | 1304

44

30.09.2013 07:08


Яндекс.Метрика powered by Sphinx


В Н И М А Н И Е
Сайт не распространяет и не хранит электронные версии произведений, а лишь бесплатно и без коммерческой выгоды (не требуя взамен платы,
SMS и т.д.) предоставляет доступ к создаваемому пользователями каталогу ссылок на торрент-файлы, которые содержат только списки хеш-сумм.
Убедительная просьба с жалобами обращаться напрямую к пользователю, разместившему торрент файл.

Вверх