Loading...
Error

Секретные территории. Разум. Запретные знания [2013 г., документальный, TVRip]

Статистика раздачи
Размер:  485 MB   |    Зарегистрирован:  3 года 3 месяца   |    Скачан:  17 раз

Полного источника не было: 2 часа 57 минут

Сидов:  0  |  0 KB/s  ]   Личеров:  0  |  0 KB/s  ]

* - сиды/пиры с внешних источников

   
 
Автор Сообщение

матроскин Пол:Муж

31-Авг-2013 12:08

Секретные территории. Разум. Запретные знания


Год выпуска: 2013
Жанр: документальный
Страна: Россия
Режиссер: Елена Гришина
Выпущено: Телеканал РЕН-ТВ
Сюжет фильма:
Телекинез, левитация. Сегодня подобные способности кажутся фантастическими. Однако наши предки с легкостью применяли их... в быту. Почему мы утратили эти возможности и можем ли вновь их обрести?
Качество видео: TVRip

Продолжительность: 00:47:50
Формат: avi
Видео: DivX 5, 704x432, 1280 kbps
Аудио: русский, оригинал, MP3 2.0, 128 kbps

Код:

General
Complete name                    : C:\Users\Security\Desktop\разум\Разум запрет знания.avi
Format                           : AVI
Format/Info                      : Audio Video Interleave
File size                        : 485 MiB
Duration                         : 47mn 50s
Overall bit rate                 : 1 418 Kbps
Writing application              : VirtualDubMod 1.6.0.0 SURROUND (build 2560/release)
Writing library                  : VirtualDubMod build 2560/release

Video
ID                               : 0
Format                           : MPEG-4 Visual
Format settings, BVOP            : Yes
Format settings, QPel            : No
Format settings, GMC             : No warppoints
Format settings, Matrix          : Default (H.263)
Muxing mode                      : Packed bitstream
Codec ID                         : DX50
Codec ID/Hint                    : DivX 5
Duration                         : 47mn 50s
Bit rate                         : 1 280 Kbps
Width                            : 704 pixels
Height                           : 432 pixels
Display aspect ratio             : 1.630
Frame rate                       : 25.000 fps
Resolution                       : 24 bits
Colorimetry                      : 4:2:0
Scan type                        : Progressive
Bits/(Pixel*Frame)               : 0.168
Stream size                      : 438 MiB (90%)
Writing library                  : DivX 6.8.5

Audio
ID                               : 1
Format                           : MPEG Audio
Format version                   : Version 1
Format profile                   : Layer 3
Codec ID                         : 55
Codec ID/Hint                    : MP3
Duration                         : 47mn 50s
Bit rate mode                    : Constant
Bit rate                         : 128 Kbps
Channel(s)                       : 2 channels
Sampling rate                    : 48.0 KHz
Resolution                       : 16 bits
Stream size                      : 43.8 MiB (9%)
Alignment                        : Split accross interleaves
Interleave, duration             : 40 ms (1.00 video frame)
Interleave, preload duration     : 500 ms
Writing library                  : LAME3.99r
Encoding settings                : -m j -V 4 -q 3 -lowpass 17 -b 128

picpicpicpicpicpic
Для увеличения картинки щелкните мышкой по превью

Этот торрент недоступен для скачивания без регистрации, однако доступен по публичной magnet-ссылке (источники с публичных трекеров). Перед использованием ссылки прочтите, пожалуйста Пользовательское соглашение, а также как можно дольше оставайтесь на раздаче! Для того, чтобы скачать сам торрент-файл (который видит больше источников), а также для того, чтобы поблагодарить релизера, вам необходимо зарегистрироваться. Если регистрироваться лень - вы можете также попробовать скачать релиз по нашим партнерским ссылкам ниже.

[underverse.su].t30524.torrent
Трекер: Зарегистрирован   [ 31.08.2013 12:08 ]  

Статус: проверено (by матроскин at 31.08.2013 12:10)
Поблагодарили: 2 человека
Тип торрента: публичный - доступные источники с открытых трекеров: 
Размер: 485 MB (занимает 0,11 DVDR, для записи нужно 1 болванка DVDR/RW)
 
 
Похожие темы
Форум Тема Автор Торрент Отв. Посл. сооб.
Зарубежные сериалы Секретные материалы / The X-Files [Сезон: 1-9 / Серии: 1-202 (202)] (Крис Картер / Chris Carter) [1993-2002, Мистика, фантастика, детектив, триллер, DVDRip] MVO (Рен-ТВ) + MVO (ОРТ) + AVO (Юрий Живов) 8ad_R060d
89 | 104

2 | 1109

13

09.08.2014 07:45

Научно-популярные фильмы Секретные эксперименты / Confidential experiments (5 фильмов) [2009 г., документальный, TVRip] oartemka178
0 | 0

1 | 1605

37

22.01.2011 07:02

Научно-популярные фильмы Секретные территории - Колесницы Богов. [2013 г., документальный, TVRip] матроскин
0 | 0

1 | 811

13

02.06.2013 07:44

Научно-популярные фильмы Секретные территории - Бледный огонь Вселенной. [2013 г., документальный, TVRip] матроскин
0 | 0

1 | 792

16

05.06.2013 17:23

Релизы Секретные тропы: Ледяное сердце. Коллекционное издание / Secret Trails: Frozen Heart Collector's Edition [2013 г., Квест Поиск предметов] RUS [P] Станислав Карбанович
7 | 0

0 | 415

7

04.04.2014 15:58

Зарубежные сериалы [BD / Remux / BDRip / WEB-DL / HDTV 1080/720р] Секретные материалы / The X-Files (Сезон 10, серии 1-6 из 6) (Крис Картер, Глен Морган, Дарин Морган, Джеймс Вонг) [2015 г., Фантастика, триллер, драма, детектив, WEB-DL 1080p] MVO (LostFilm) +... srab
0 | 0

2 | 1928

18

25.02.2016 06:30

Мультфильмы [HDDVDRip / BDRip / WEB-DL / HDTV 1080/720р] Секретные материалы Мстителей: Черная Вдова и Каратель / Avengers Confidential: Black Widow & Punisher (Кенити Симидзу / Kenichi Shimizu) [2014 г., мультфильм, фантастика, BDRip 720p] DVO... 90ytr90
1 | 0

0 | 514

10

18.06.2014 14:39

матроскин Пол:Муж

31-Авг-2013 12:10

Юня11 Пол:Муж

07-Сен-2013 13:59

Ну и хде ж раздача? Тю-тю?!

Яндекс.Метрика powered by Sphinx


В Н И М А Н И Е
Сайт не распространяет и не хранит электронные версии произведений, а лишь бесплатно и без коммерческой выгоды (не требуя взамен платы,
SMS и т.д.) предоставляет доступ к создаваемому пользователями каталогу ссылок на торрент-файлы, которые содержат только списки хеш-сумм.
Убедительная просьба с жалобами обращаться напрямую к пользователю, разместившему торрент файл.

Вверх