Loading...
Error

Нераскрытая тайна пришельцев - Кыштымский Карлик [2004 г., документальный, TVRip]

Статистика раздачи
Размер:  195 MB   |    Зарегистрирован:  3 года 3 месяца   |    Скачан:  8 раз

Полного источника не было: 2 года

Сидов:  0  |  0 KB/s  ]   Личеров:  0  |  0 KB/s  ]

* - сиды/пиры с внешних источников

   
 
Автор Сообщение

матроскин Пол:Муж

31-Авг-2013 10:07

Нераскрытая тайна пришельцев - Кыштымский Карлик


Год выпуска: 2004
Жанр: документальный
Страна: Россия
Режиссер: Сергей Кострицкий
Выпущено: Телеканал РЕН-ТВ
Сюжет фильма:
Фильм рассказывает о загадочном существе получившем название "Кыштымский карлик по имени Алешенька". Рассматриваются 4 основных версии его происхождения, каждая из которых подкреплена доказательствами и мнениями авторитетных экспертов. Фильм можно рассматривать как полное досье на тему "Кыштымский карлик".
И все таки что ж это за кыштынский карлик. С чего все начелось? А начелось......
По утверждениям жителей поселка Калиновый, что приткнулся рядышком с городком Кыштымом (Челябинская область), началось все в грозовую ночь на 13 августа 1996 года.
Именно тогда местная жительница, одинокая пенсионерка Тамара Васильевна Просвирина получила "телепатический приказ": встать и немедленно идти на кладбище. Впрочем, наличие телепатии объяснялось достаточно просто, Тамара Васильевна была не совсем психически здорова и периодически собирала на кладбище цветы. Странно было другое - она нашла того, кто её звал. Из-за холмика на нее глядело маленькое существо с огромными глазами...
Но давайте лучше предоставим слово участникам событий. Жутковатая была находка - не то человеческий младенец, не то неведомая зверюшка: голова остроконечной тыковкой, вместо губ - щелка, тело покрыто шерсткой, на пальцах острые коготки... Существо это жалобно попискивало, и сердобольная старушка решила взять его с собой - завернула, принесла домой, накормила и назвала Алешенькой.
Качество видео: TVRip

Продолжительность: 00:42:57
Формат: avi
Видео: DivX 5, 512x384, 560 kbps
Аудио: русский, оригинал, MP3 1, 64 kbps

Код:

General
Complete name                    : C:\Users\Security\Desktop\кыштымский карлик\Кыштымский карлик.avi
Format                           : AVI
Format/Info                      : Audio Video Interleave
File size                        : 195 MiB
Duration                         : 42mn 57s
Overall bit rate                 : 634 Kbps
Writing application              : VirtualDubMod 1.5.10.1 (build 2366/release)
Writing library                  : VirtualDubMod build 2366/release

Video
ID                               : 0
Format                           : MPEG-4 Visual
Format settings, BVOP            : Yes
Format settings, QPel            : No
Format settings, GMC             : 2 warppoints
Format settings, Matrix          : Default (H.263)
Muxing mode                      : Packed bitstream
Codec ID                         : DX50
Codec ID/Hint                    : DivX 5
Duration                         : 42mn 57s
Bit rate                         : 560 Kbps
Width                            : 512 pixels
Height                           : 384 pixels
Display aspect ratio             : 4/3
Frame rate                       : 25.000 fps
Resolution                       : 24 bits
Scan type                        : Progressive
Bits/(Pixel*Frame)               : 0.114
Stream size                      : 172 MiB (88%)
Writing library                  : DivX 5.1.0 (UTC 2003-09-02)

Audio
ID                               : 1
Format                           : MPEG Audio
Format version                   : Version 1
Format profile                   : Layer 3
Codec ID                         : 55
Codec ID/Hint                    : MP3
Duration                         : 42mn 57s
Bit rate mode                    : Constant
Bit rate                         : 64.0 Kbps
Channel(s)                       : 1 channel
Sampling rate                    : 44.1 KHz
Resolution                       : 16 bits
Stream size                      : 19.7 MiB (10%)
Alignment                        : Split accross interleaves
Interleave, duration             : 40 ms (1.00 video frame)
Interleave, preload duration     : 500 ms
Writing library                  : LAME3.93
Encoding settings                : -m m -V 4 -q 2 -lowpass 13.7 -b 64

picpicpicpicpicpic
Для увеличения картинки щелкните мышкой по превью

Этот торрент недоступен для скачивания без регистрации, однако доступен по публичной magnet-ссылке (источники с публичных трекеров). Перед использованием ссылки прочтите, пожалуйста Пользовательское соглашение, а также как можно дольше оставайтесь на раздаче! Для того, чтобы скачать сам торрент-файл (который видит больше источников), а также для того, чтобы поблагодарить релизера, вам необходимо зарегистрироваться. Если регистрироваться лень - вы можете также попробовать скачать релиз по нашим партнерским ссылкам ниже.

[underverse.su].t30520.torrent
Трекер: Зарегистрирован   [ 31.08.2013 10:07 ]  

Статус: проверено (by матроскин at 31.08.2013 10:09)
Поблагодарили: 1 человек
Тип торрента: публичный - доступные источники с открытых трекеров: 
Размер: 195 MB (занимает 0,04 DVDR, для записи нужно 1 болванка DVDR/RW)
 
 

матроскин Пол:Муж

31-Авг-2013 10:09


Яндекс.Метрика powered by Sphinx


В Н И М А Н И Е
Сайт не распространяет и не хранит электронные версии произведений, а лишь бесплатно и без коммерческой выгоды (не требуя взамен платы,
SMS и т.д.) предоставляет доступ к создаваемому пользователями каталогу ссылок на торрент-файлы, которые содержат только списки хеш-сумм.
Убедительная просьба с жалобами обращаться напрямую к пользователю, разместившему торрент файл.

Вверх