Loading...
Error

Ледник / Frost (Рейнир Лингдаль / Reynir Lyngdal) [2012 г., ужасы, фантастика, триллер, DVDRip] VO

Статистика раздачи
Размер:  1,46 GB   |    Зарегистрирован:  3 года 3 месяца   |    Скачан:  25 раз

Полного источника не было: 6 месяцев

Сидов:  0  |  0 KB/s  ]   Личеров:  0  |  0 KB/s  ]

* - сиды/пиры с внешних источников

   
 
Автор Сообщение

Чертёнок Пол:Муж

31-Авг-2013 09:59

Ледник / Frost
«Добро пожаловать в его владения»


Страна: Исландия, Финляндия
Студия: Axman Productions, Kisi Production...
Жанр: ужасы, фантастика, триллер
Год выпуска: 2012
Продолжительность: 01:18:46
Перевод: Любительский одноголосый
Субтитры: нет
Оригинальная аудиодорожка: нет

Режиссер: Рейнир Лингдаль / Reynir Lyngdal
В ролях: Анна Гунндис Гюдмундсдоттир, Хельги Бьёрнссон, Эйнар Дагбьяртссон, Валур Фрейр Эйнарссон, Элма Лиза Гуннарсдотир, Бьяртур Гудмундссон, Халлур Инголфссон, Хилмир Дженссон, Хилмар Йонсон, Хальфдан Педерсен...

Описание: Молодая пара ученых отправляется на скованную льдами исследовательскую базу. Весь ее персонал бесследно исчез. Они — единственные живые души на сотни километров. Но чем ближе ученые оказываются к чудовищной разгадке, тем отчетливее понимают, за каждым их шагом наблюдает кто-то третий — таинственное нечто. И они — его последние гости.


Семплик
Исходник: DVD5 R5
Тип релиза: DVDRip,
Контейнер: AVI
Видео: 720x320 (2.25:1), 25.000 fps, XVID ~2203 kbps avg, 0.383 bit/pixel
Аудио: Русский 48 kHz, AC3, 6 ch, 448.00 kbps Constant
Общее
Полное имя : Lednik.2012.D.DVDRip[Youtracker]_by_avproh.avi
Формат : AVI
Формат/Информация : Audio Video Interleave
Размер файла : 1,46 Гбайт
Продолжительность : 1 ч. 18 м.
Общий поток : 2661 Кбит/сек
Программа кодирования : VirtualDubMod 1.5.10.3 | www.virtualdub-fr.org || (build 2550/release)
Библиотека кодирования : VirtualDubMod build 2550/release

Видео
Идентификатор : 0
Формат : MPEG-4 Visual
Профиль формата : Advanced Simple@L5
Параметр BVOP формата : 1
Параметр QPel формата : Нет
Параметр GMC формата : Без точки перехода
Параметр матрицы формата : Выборочная
Идентификатор кодека : XVID
Идентификатор кодека/Подсказка : XviD
Продолжительность : 1 ч. 18 м.
Битрейт : 2203 Кбит/сек
Ширина : 720 пикселей
Высота : 320 пикселей
Соотношение сторон : 2,25:1
Частота кадров : 25,000 кадров/сек
Цветовое пространство : YUV
Субдискретизация насыщенности : 4:2:0
Битовая глубина : 8 бит
Тип развёртки : Прогрессивная
Метод сжатия : С потерями
Бит/(Пиксели*Кадры) : 0.383
Размер потока : 1,21 Гбайт (83%)
Библиотека кодирования : XviD 65

Аудио
Идентификатор : 1
Формат : AC-3
Формат/Информация : Audio Coding 3
Расширение режима : CM (complete main)
Параметр Endianness формата : Big
Идентификатор кодека : 2000
Продолжительность : 1 ч. 18 м.
Вид битрейта : Постоянный
Битрейт : 448 Кбит/сек
Каналы : 6 каналов
Расположение каналов : Front: L C R, Side: L R, LFE
Частота : 48,0 КГц
Битовая глубина : 16 бит
Метод сжатия : С потерями
Размер потока : 252 Мбайт (17%)
Выравнивание : Разделение по промежуткам
Продолжительность промежутка : 40 мс. (1,00 видеокадр)
Время предзагрузки промежутка : 500 мс.
picpicpicpic
Для увеличения картинки щелкните мышкой по превью

Этот торрент недоступен для скачивания без регистрации, однако доступен по публичной magnet-ссылке (источники с публичных трекеров). Перед использованием ссылки прочтите, пожалуйста Пользовательское соглашение, а также как можно дольше оставайтесь на раздаче! Для того, чтобы скачать сам торрент-файл (который видит больше источников), а также для того, чтобы поблагодарить релизера, вам необходимо зарегистрироваться. Если регистрироваться лень - вы можете также попробовать скачать релиз по нашим партнерским ссылкам ниже.

[underverse.su].t30519.torrent
Трекер: Зарегистрирован   [ 31.08.2013 09:59 ]  

Статус: проверено (by Чертёнок at 31.08.2013 10:02)
Поблагодарили: 1 человек
Тип торрента: публичный - доступные источники с открытых трекеров: 
Размер: 1,46 GB (занимает 0,33 DVDR, для записи нужно 1 болванка DVDR/RW)
 
 
Похожие темы
Форум Тема Автор Торрент Отв. Посл. сооб.
Зарубежное кино [DVDRip, Low-Res HDRip, и т.д.] Ледник / Frost (Рейнир Лингдаль / Reynir Lyngdal) [2012 г., ужасы, фантастика, триллер, DVDRip-AVC] VO 90ytr90
2 | 1

0 | 1191

40

01.09.2013 07:16



Последний раз редактировалось: Чертёнок (07.09.2013 16:46), всего редактировалось 2 раз(а)

Юня11 Пол:Муж

07-Сен-2013 16:26

Перевод-то одноголосный! Да и картинка местами с брачком. :x

Чертёнок Пол:Муж

07-Сен-2013 16:28

Щя проверю. :(

Чертёнок Пол:Муж

07-Сен-2013 16:47

Просмотр этого фильма является явным актом кино-мазохизма. :ROFL:

добавлено спустя 2 минуты 54 секунды:

Да одноголосый, исправил было не верно на другом сайте :sorry:

Юня11 писал(а):

Перевод-то одноголосный! Да и картинка местами с брачком. :x

Яндекс.Метрика powered by Sphinx


В Н И М А Н И Е
Сайт не распространяет и не хранит электронные версии произведений, а лишь бесплатно и без коммерческой выгоды (не требуя взамен платы,
SMS и т.д.) предоставляет доступ к создаваемому пользователями каталогу ссылок на торрент-файлы, которые содержат только списки хеш-сумм.
Убедительная просьба с жалобами обращаться напрямую к пользователю, разместившему торрент файл.

Вверх