Loading...
Error

Моя правда. Татьяна Пельтцер: Закулисье [2008 г., документальный, биография, TVRip]

Статистика раздачи
Размер:  320 MB   |    Зарегистрирован:  3 года 3 месяца   |    Скачан:  6 раз

Полного источника не было: 2 года 9 месяцев

Сидов:  0  |  0 KB/s  ]   Личеров:  0  |  0 KB/s  ]

* - сиды/пиры с внешних источников

   
 
Автор Сообщение

матроскин Пол:Муж

31-Авг-2013 08:59

Моя правда. Татьяна Пельтцер: Закулисье.


Год выпуска: 2008
Жанр: документальный, биография
Страна: Россия
Выпущено: Телеканал "Домашний"
Сюжет фильма:
Жизнь героев программы похожа на яркую вспышку звезды. Ими увлекаются, их боготворят и подражают им. Они стали кумирами миллионов поклонников в разных странах и остаются ими и по сей день, несмотря на быстротечность времени и водоворот изменений. Программа «Моя правда» разрушает стереотипы и показывает жизнь героя таким, какой он есть на самом деле. Зритель не помнит Татьяну Пельтцер молодой. К тому моменту, как к актрисе пришла широкая известность, ей исполнилось 49 лет. Такой зритель ее и полюбил - в образе пожилых мама, бабушек, тетушек, соседок, учительниц и уборщиц.
Качество видео: TVRip

Продолжительность: 00:30:44
Формат: avi
Видео: XviD, 704x416, 1319 kbps
Аудио: русский, оригинал, MP3 2.0, 128 kbps

Код:

General
Complete name                    : C:\Users\Security\Desktop\закулисье пелтцер\Моя правдаПельтцер.avi
Format                           : AVI
Format/Info                      : Audio Video Interleave
File size                        : 320 MiB
Duration                         : 30mn 44s
Overall bit rate                 : 1 457 Kbps
Writing application              : VirtualDubMod 1.5.10.3 | www.virtualdub-fr.org || (build 2550/release)
Writing library                  : VirtualDubMod build 2550/release

Video
ID                               : 0
Format                           : MPEG-4 Visual
Format profile                   : Streaming Video@L1
Format settings, BVOP            : Yes
Format settings, QPel            : No
Format settings, GMC             : No warppoints
Format settings, Matrix          : Default (MPEG)
Codec ID                         : XVID
Codec ID/Hint                    : XviD
Duration                         : 30mn 44s
Bit rate                         : 1 320 Kbps
Width                            : 704 pixels
Height                           : 416 pixels
Display aspect ratio             : 1.692
Frame rate                       : 25.000 fps
Resolution                       : 24 bits
Colorimetry                      : 4:2:0
Scan type                        : Progressive
Bits/(Pixel*Frame)               : 0.180
Stream size                      : 290 MiB (91%)
Writing library                  : XviD 57

Audio
ID                               : 1
Format                           : MPEG Audio
Format version                   : Version 1
Format profile                   : Layer 3
Codec ID                         : 55
Codec ID/Hint                    : MP3
Duration                         : 30mn 44s
Bit rate mode                    : Constant
Bit rate                         : 128 Kbps
Channel(s)                       : 2 channels
Sampling rate                    : 48.0 KHz
Resolution                       : 16 bits
Stream size                      : 28.1 MiB (9%)
Alignment                        : Aligned on interleaves
Interleave, duration             : 40 ms (1.00 video frame)
Interleave, preload duration     : 504 ms
Writing library                  : LAME3.98r
Encoding settings                : -m j -V 4 -q 2 -lowpass 17 -b 128

picpicpicpicpicpic
Для увеличения картинки щелкните мышкой по превью

Этот торрент недоступен для скачивания без регистрации, однако доступен по публичной magnet-ссылке (источники с публичных трекеров). Перед использованием ссылки прочтите, пожалуйста Пользовательское соглашение, а также как можно дольше оставайтесь на раздаче! Для того, чтобы скачать сам торрент-файл (который видит больше источников), а также для того, чтобы поблагодарить релизера, вам необходимо зарегистрироваться. Если регистрироваться лень - вы можете также попробовать скачать релиз по нашим партнерским ссылкам ниже.

[underverse.su].t30516.torrent
Трекер: Зарегистрирован   [ 31.08.2013 08:59 ]  

Статус: проверено (by матроскин at 31.08.2013 09:00)
Поблагодарили: 1 человек
Тип торрента: публичный - доступные источники с открытых трекеров: 
Размер: 320 MB (занимает 0,07 DVDR, для записи нужно 1 болванка DVDR/RW)
 
 

матроскин Пол:Муж

31-Авг-2013 09:00


Яндекс.Метрика powered by Sphinx


В Н И М А Н И Е
Сайт не распространяет и не хранит электронные версии произведений, а лишь бесплатно и без коммерческой выгоды (не требуя взамен платы,
SMS и т.д.) предоставляет доступ к создаваемому пользователями каталогу ссылок на торрент-файлы, которые содержат только списки хеш-сумм.
Убедительная просьба с жалобами обращаться напрямую к пользователю, разместившему торрент файл.

Вверх