Loading...
Error

Доказательства вины. Смертельный долг [2010 г., документальный, криминальный, TVRip]

Статистика раздачи
Размер:  285 MB   |    Зарегистрирован:  3 года 3 месяца   |    Скачан:  0 раз

Полного источника не было: 2 года 9 месяцев

Сидов:  0  |  0 KB/s  ]   Личеров:  0  |  0 KB/s  ]

* - сиды/пиры с внешних источников

   
 
Автор Сообщение

матроскин Пол:Муж

31-Авг-2013 06:36

Доказательства вины. Смертельный долг


Год выпуска: 2010
Жанр: документальный, криминальный
Страна: Россия
Режиссер: Дарья Мацкевич
Выпущено: Телеканал ТВЦ
Сюжет фильма:
Преступник зверски расправился с пожилой парой. Последней, кто видел супругов, оказалась соседка - многодетная мать, которая любила стариков как родных. Единственная свидетельница наводит оперативников на след убийцы. Но стоит ли им покидать место преступления?
Качество видео: TVRip

Продолжительность: 00:25:50
Формат: avi
Видео: XviD, 704x432, 1401 kbps
Аудио: русский, оригинал, MP3 2.0, 128 kbps

Код:

General
Complete name                    : C:\Users\Security\Desktop\доказ вины\Доказ вины.avi
Format                           : AVI
Format/Info                      : Audio Video Interleave
File size                        : 285 MiB
Duration                         : 25mn 50s
Overall bit rate                 : 1 543 Kbps
Writing library                  : TMPGEnc 4.0 XPress Version. 4.7.7.307

Video
ID                               : 0
Format                           : MPEG-4 Visual
Format profile                   : Simple@L1
Format settings, BVOP            : No
Format settings, QPel            : No
Format settings, GMC             : No warppoints
Format settings, Matrix          : Default (H.263)
Codec ID                         : XVID
Codec ID/Hint                    : XviD
Duration                         : 25mn 50s
Bit rate                         : 1 402 Kbps
Width                            : 704 pixels
Height                           : 432 pixels
Display aspect ratio             : 1.630
Frame rate                       : 25.000 fps
Resolution                       : 24 bits
Colorimetry                      : 4:2:0
Scan type                        : Progressive
Bits/(Pixel*Frame)               : 0.184
Stream size                      : 259 MiB (91%)
Writing library                  : Lavc52.83.0

Audio
ID                               : 1
Format                           : MPEG Audio
Format version                   : Version 1
Format profile                   : Layer 3
Codec ID                         : 55
Codec ID/Hint                    : MP3
Duration                         : 25mn 50s
Bit rate mode                    : Constant
Bit rate                         : 128 Kbps
Channel(s)                       : 2 channels
Sampling rate                    : 48.0 KHz
Resolution                       : 16 bits
Stream size                      : 23.7 MiB (8%)
Alignment                        : Aligned on interleaves
Interleave, duration             : 40 ms (1.00 video frame)
Interleave, preload duration     : 384 ms

picpicpicpicpicpic
Для увеличения картинки щелкните мышкой по превью

Этот торрент недоступен для скачивания без регистрации, однако доступен по публичной magnet-ссылке (источники с публичных трекеров). Перед использованием ссылки прочтите, пожалуйста Пользовательское соглашение, а также как можно дольше оставайтесь на раздаче! Для того, чтобы скачать сам торрент-файл (который видит больше источников), а также для того, чтобы поблагодарить релизера, вам необходимо зарегистрироваться. Если регистрироваться лень - вы можете также попробовать скачать релиз по нашим партнерским ссылкам ниже.

[underverse.su].t30512.torrent
Трекер: Зарегистрирован   [ 31.08.2013 06:36 ]  

Статус: проверено (by матроскин at 31.08.2013 06:39)
Поблагодарили: пока никто не поблагодарил...
Тип торрента: публичный - доступные источники с открытых трекеров: 
Размер: 285 MB (занимает 0,06 DVDR, для записи нужно 1 болванка DVDR/RW)
 
 
Похожие темы
Форум Тема Автор Торрент Отв. Посл. сооб.
Зарубежное кино [DVDRip, Low-Res HDRip, и т.д.] Доказательство жизни / Proof of life (Тэйлор Хэкфорд / Taylor Hackford) [2000 г., боевик, триллер, драма, DVDRip] GUree
0 | 1

2 | 1074

4

10.01.2012 07:26

Зарубежное кино [DVDRip, Low-Res HDRip, и т.д.] Доказательство Дьявола / Proof of the Devil (Пол Каталанотто) [2014 г., ужасы, BDRip] VO + Original makkol
14 | 0

0 | 429

12

20.11.2015 13:45

Зарубежные сериалы Доказательство / Proof / Сезон 1 (1-10 серии из 10) (Алекс Грейвз, Эллисон Андерс, Нельсон МакКормик) [2015 г., драма, WEB-DLRip] MVO + Original older
17 | 4

4 | 647

10

19.10.2015 14:16

Зарубежное кино [HDDVDRip / BDRip / WEB-DL / HDTV 1080/720р] Доказательство Дьявола / Proof of the Devil (Пол Каталанотто) [2014 г., ужасы, BDRip 1080p] VO + Original makkol
1 | 0

0 | 455

10

20.11.2015 13:54

* Архив Доказательство смерти / Death Proof (Квентин Тарантино) [2007 г., боевик, триллер, криминал, DVD-9] Bratok

2 | 975

12.09.2010 19:40

матроскин Пол:Муж

31-Авг-2013 06:39


Яндекс.Метрика powered by Sphinx


В Н И М А Н И Е
Сайт не распространяет и не хранит электронные версии произведений, а лишь бесплатно и без коммерческой выгоды (не требуя взамен платы,
SMS и т.д.) предоставляет доступ к создаваемому пользователями каталогу ссылок на торрент-файлы, которые содержат только списки хеш-сумм.
Убедительная просьба с жалобами обращаться напрямую к пользователю, разместившему торрент файл.

Вверх