Loading...
Error

Великий Гэтсби / The Great Gatsby (Баз Лурман) [2013 г., драма, мелодрама, BDRip] Dub (Rus,Ukr) + Original + Sub (Rus,Ukr,Eng) HQ Underverse

Статистика раздачи
Размер:  2,18 GB   |    Зарегистрирован:  3 года 10 месяцев   |    Скачан:  161 раз

Полного источника не было: 7 месяцев

Сидов:  0  |  0 KB/s  ]   Личеров:  0  |  0 KB/s  ]

* - сиды/пиры с внешних источников

   
 
Автор Сообщение

HQ Underverse 

30-Авг-2013 11:22

Великий Гэтсби / The Great Gatsby


Год выпуска: 2013
Жанр: драма, мелодрама
Страна: США , Австралия
Режиссер: Баз Лурман
В ролях: Леонардо ДиКаприо, Тоби Магуайр, Кэри Маллиган, Джоэл Эдгертон, Айла Фишер, Лиза Адам, Фрэнк Элдридж, Амитабх Баччан, Стив Бисли, Ричард Картер
Сюжет фильма:
Весной 1922 года, в эпоху разлагающейся морали, блистательного джаза и «королей контрабандного алкоголя», Ник Каррауэй приезжает из Среднего Запада в Нью-Йорк. Преследуя собственную американскую мечту, он селится по соседству с таинственным, известным своими вечеринками миллионером Джеем Гэтсби, а на противоположном берегу бухты проживают его кузина Дэйзи и её муж, повеса и аристократ, Том Бьюкенен. Так Ник оказывается вовлечённым в захватывающий мир богатых — их иллюзий, любви и обманов. Он становится свидетелем происходящего в этом мире и пишет историю невозможной любви, вечных мечтаний и человеческой трагедии, которые являются отражением современных времен и нравов.

  • Мировая премьера: 1 мая 2013
  • Российская премьера: 16 мая 2013

|
Качество видео: BDRip

Продолжительность: 02:22:05
Формат: avi
Видео: XviD, 720x304, 1800 kbps
Аудио #1: русский, дублированный [цифровая лицензия iTunes Russia], AC3 5.1, 384 kbps
Аудио #2: украинский, дублированный [цифровая лицензия iTunes Russia], AC3 2.0, 192 kbps (отдельным файлом: здесь)
Аудио #3: английский, оригинал, AC3 5.1, 384 kbps (отдельным файлом: здесь)
Субтитры #1: внешние, SRT, украинский
Субтитры #2: внешние, SRT, английский
Субтитры #3: внешние, SRT, русский

Код:

General
Complete name                    : Z:\windoza-share\Великий Гэтсби\Great.Gatsby.2013.BDRip.XviD.AC3.Rus.D.HQ.Underverse.avi
Format                           : AVI
Format/Info                      : Audio Video Interleave
Format profile                   : OpenDML
File size                        : 2.18 GiB
Duration                         : 2h 22mn
Overall bit rate                 : 2 197 Kbps
Writing application              : VirtualDubMod 1.5.10.2 (build 2540/release)
Writing library                  : VirtualDubMod build 2540/release

Video
ID                               : 0
Format                           : MPEG-4 Visual
Format profile                   : Streaming Video@L1
Format settings, BVOP            : Yes
Format settings, QPel            : No
Format settings, GMC             : No warppoints
Format settings, Matrix          : Custom
Muxing mode                      : Packed bitstream
Codec ID                         : XVID
Codec ID/Hint                    : XviD
Duration                         : 2h 22mn
Bit rate                         : 1 801 Kbps
Width                            : 720 pixels
Height                           : 304 pixels
Display aspect ratio             : 2.35
Frame rate                       : 23.976 fps
Resolution                       : 24 bits
Colorimetry                      : 4:2:0
Scan type                        : Progressive
Bits/(Pixel*Frame)               : 0.343
Stream size                      : 1.79 GiB (82%)
Writing library                  : XviD 64

Audio
ID                               : 1
Format                           : AC-3
Format/Info                      : Audio Coding 3
Codec ID                         : 2000
Duration                         : 2h 22mn
Bit rate mode                    : Constant
Bit rate                         : 384 Kbps
Channel(s)                       : 6 channels
Channel positions                : Front: L C R, Surround: L R, LFE
Sampling rate                    : 48.0 KHz
Stream size                      : 390 MiB (17%)
Alignment                        : Split accross interleaves
Interleave, duration             : 42 ms (1.00 video frame)
Interleave, preload duration     : 500 ms

General
Complete name                    : Z:\windoza-share\Великий Гэтсби\Great.Gatsby.2013.BDRip.XviD.AC3.Rus.D.HQ.Underverse.UKR.ac3
Format                           : AC-3
Format/Info                      : Audio Coding 3
File size                        : 195 MiB
Duration                         : 2h 22mn
Overall bit rate                 : 192 Kbps

Audio
Format                           : AC-3
Format/Info                      : Audio Coding 3
Duration                         : 2h 22mn
Bit rate mode                    : Constant
Bit rate                         : 192 Kbps
Channel(s)                       : 2 channels
Channel positions                : L R
Sampling rate                    : 48.0 KHz
Stream size                      : 195 MiB (100%)

General
Complete name                    : Z:\windoza-share\Великий Гэтсби\Great.Gatsby.2013.BDRip.XviD.AC3.Rus.D.HQ.Underverse.ENG.ac3
Format                           : AC-3
Format/Info                      : Audio Coding 3
File size                        : 390 MiB
Duration                         : 2h 22mn
Overall bit rate                 : 384 Kbps

Audio
Format                           : AC-3
Format/Info                      : Audio Coding 3
Duration                         : 2h 22mn
Bit rate mode                    : Constant
Bit rate                         : 384 Kbps
Channel(s)                       : 6 channels
Channel positions                : Front: L C R, Surround: L R, LFE
Sampling rate                    : 48.0 KHz
Stream size                      : 390 MiB (100%)

Релиз группы:

picpicpic
Для увеличения картинки щелкните мышкой по превью

Этот торрент недоступен для скачивания без регистрации, однако доступен по публичной magnet-ссылке (источники с публичных трекеров). Перед использованием ссылки прочтите, пожалуйста Пользовательское соглашение, а также как можно дольше оставайтесь на раздаче! Для того, чтобы скачать сам торрент-файл (который видит больше источников), а также для того, чтобы поблагодарить релизера, вам необходимо зарегистрироваться. Если регистрироваться лень - вы можете также попробовать скачать релиз по нашим партнерским ссылкам ниже.

[underverse.su].t30467.torrent
Трекер: Зарегистрирован   [ 30.08.2013 11:22 ]  

Статус: проверено (by HQ Underverse at 30.08.2013 11:22)
Поблагодарили: 6 человек
Тип торрента: публичный - доступные источники с открытых трекеров: 
Размер: 2,18 GB (занимает 1/2 DVDR, для записи нужно 1 болванка DVDR/RW)
 
 
Похожие темы
Форум Тема Автор Торрент Отв. Посл. сооб.
Зарубежное кино [DVDRip, Low-Res HDRip, и т.д.] Великий Гэтсби / The Great Gatsby (Баз Лурман / Baz Luhrmann) [2013 г., драма, мелодрама, HDRip] VO Чертёнок
8 | 0

0 | 861

19

14.08.2013 08:24

Зарубежное кино [DVDRip, Low-Res HDRip, и т.д.] Великий Гэтсби / The Great Gatsby (Баз Лурман / Baz Luhrmann) [2013 г., драма, мелодрама, HDRip] Dub 90ytr90
4 | 0

0 | 2016

62

31.10.2013 17:48

Зарубежное кино [DVDRip, Low-Res HDRip, и т.д.] Великий Гэтсби / The Great Gatsby (Баз Лурман / Baz Luhrmann) [2013 г., драма, мелодрама, BDRip] Dub + Original + Sub (Rus, Eng) 90ytr90
1 | 0

0 | 815

39

31.10.2013 18:06

Зарубежное кино [DVD / HDDVD / BD / Remux] Великий Гэтсби / The Great Gatsby (Баз Лурман / Baz Luhrmann) [2013, Австралия, США, драма, мелодрама, Blu-ray disc 1080p] Dub + Original + Sub (Rus, Eng) uzi2009
0 | 0

0 | 630

1

13.03.2014 08:23

Видео для смартфонов Великий Гэтсби / The Great Gatsby (Баз Лурман) [2013 г., драма, мелодрама, HDRip] DuB | iTunes Russia | iPhone Чертёнок
0 | 0

0 | 1164

7

17.08.2013 21:15


Яндекс.Метрика powered by Sphinx


В Н И М А Н И Е
Сайт не распространяет и не хранит электронные версии произведений, а лишь бесплатно и без коммерческой выгоды (не требуя взамен платы,
SMS и т.д.) предоставляет доступ к создаваемому пользователями каталогу ссылок на торрент-файлы, которые содержат только списки хеш-сумм.
Убедительная просьба с жалобами обращаться напрямую к пользователю, разместившему торрент файл.

Вверх