Loading...
Error

Вечный зов / Серии 1-19 (19) ( Владимир Краснопольский, Валерий Усков ) [1973-1983 г., Военный, Драма, Советский фильм , DVDRip]

Статистика раздачи
Размер:  12,99 GB   |    Зарегистрирован:  3 года 3 месяца   |    Скачан:  3 раза

Полного источника не было: 1 год 1 месяц

Сидов:  0  |  0 KB/s  ]   Личеров:  0  |  0 KB/s  ]

* - сиды/пиры с внешних источников

   
 
Автор Сообщение

vasilich619 Пол:Муж

27-Авг-2013 13:14

Вечный зов


Год выпуска: 1973-1983 г.
Жанр: Военный, Драма, Советский фильм
Страна: СССР
Режиссер: Владимир Краснопольский, Валерий Усков
Сценаристы: Анатолий Иванов (V), Константин Исаев
Операторы: Петр Емельянов, Владимир Минаев
Композитор: Леонид Афанасьев
Всего серий:1-19
Продолжительность: 19x 01:04:51(22:09:30)
Язык:Русский
Производство: Мосфильм
В ролях: В ролях:Тамара Сёмина, Петр Вельяминов, Андрей Мартынов, Ефим Копелян, Ада Роговцева, Иван Лапиков, Вадим Спиридонов, Валерий Хлевинский, Николай Иванов, Владлен Бирюков
Сюжет фильма:
История семьи Савельевых, выходцев из далекого сибирского села, разворачивается на фоне исторических событий в России, охватывающих период с 1902 по 1960 годы. На их долю выпали три войны, революция, становление нового строя и все драматические события, которые принес двадцатый век. Жизнь постоянно требует от героев «Вечного зова» выбора между любовью и ненавистью. В центре повествования – три брата Савельевых: старший Антон, средний Фёдор и младший Иван.
Качество видео: DVDRip
Формат: Avi
Видео: DivX 5; 640x480; 25.00 fps; ~ 1100-1500 kb/s
Аудио: MPEG Audio layer 3; 2 ch; 192 kb/s; 48 kHz,
Общее
Полное имя : F:\Фильмы\Сериалы\Вечный зов\Вечный зов 01.avi
Формат : AVI
Формат/Информация : Audio Video Interleave
Размер файла : 701 Мбайт
Продолжительность : 1 ч. 4 м.
Общий поток : 1512 Кбит/сек
Программа кодирования : VirtualDubMod 1.5.10.2 (build 2540/release)
Библиотека кодирования : VirtualDubMod build 2540/release

Видео
Идентификатор : 0
Формат : MPEG-4 Visual
Параметр BVOP формата : 1
Параметр QPel формата : Нет
Параметр GMC формата : Без точки перехода
Параметр матрицы формата : Default (H.263)
Режим смешивания : Сжатый битовый поток
Идентификатор кодека : DX50
Идентификатор кодека/Подсказка : DivX 5
Продолжительность : 1 ч. 4 м.
Битрейт : 1310 Кбит/сек
Ширина : 640 пикселей
Высота : 480 пикселей
Соотношение сторон : 4:3
Частота кадров : 25,000 кадров/сек
Цветовое пространство : YUV
Субдискретизация насыщенности : 4:2:0
Битовая глубина : 8 бит
Тип развёртки : Прогрессивная
Метод сжатия : С потерями
Бит/(Пиксели*Кадры) : 0.171
Размер потока : 608 Мбайт (87%)
Библиотека кодирования : DivX 5.2.1 (DrDivX 106) (UTC 2004-09-08)

Аудио
Идентификатор : 1
Формат : MPEG Audio
Версия формата : Version 1
Профиль формата : Layer 3
Режим : Joint stereo
Расширение режима : MS Stereo
Идентификатор кодека : 55
Идентификатор кодека/Подсказка : MP3
Продолжительность : 1 ч. 4 м.
Вид битрейта : Постоянный
Битрейт : 192 Кбит/сек
Каналы : 2 канала
Частота : 48,0 КГц
Метод сжатия : С потерями
Размер потока : 89,1 Мбайт (13%)
Выравнивание : Соединение по промежуткам
Продолжительность промежутка : 40 мс. (1,00 видеокадр)
Время предзагрузки промежутка : 504 мс.
Библиотека кодирования : LAME3.97
pic pic pic pic pic pic pic pic pic
Для увеличения картинки щелкните мышкой по превью

Этот торрент недоступен для скачивания без регистрации, однако доступен по публичной magnet-ссылке (источники с публичных трекеров). Перед использованием ссылки прочтите, пожалуйста Пользовательское соглашение, а также как можно дольше оставайтесь на раздаче! Для того, чтобы скачать сам торрент-файл (который видит больше источников), а также для того, чтобы поблагодарить релизера, вам необходимо зарегистрироваться. Если регистрироваться лень - вы можете также попробовать скачать релиз по нашим партнерским ссылкам ниже.

[underverse.su].t30373.torrent
Трекер: Зарегистрирован   [ 27.08.2013 13:14 ]  

Статус: проверено (by техно1 at 28.08.2013 07:15)
Поблагодарили: 1 человек
Тип торрента: публичный - доступные источники с открытых трекеров: 
Размер: 12,99 GB (занимает 2,97 DVDR, для записи нужно 3 болванки DVDR/RW)
 
 


Последний раз редактировалось: vasilich619 (07.09.2013 13:07), всего редактировалось 2 раз(а)

vasilich619 Пол:Муж

29-Авг-2013 16:35

Добрый вечер.подправил

техно1 Пол:Муж

29-Авг-2013 16:36

vasilich619 писал(а):

Добрый вечер.подправил
Что именно подправил?

alina180 Пол:Муж

31-Авг-2013 17:32

vasilich619
Уважаемый автор станьте пожалуйста на раздачу х.ф." Вечный зов" .Заранее благодарен.

Яндекс.Метрика powered by Sphinx


В Н И М А Н И Е
Сайт не распространяет и не хранит электронные версии произведений, а лишь бесплатно и без коммерческой выгоды (не требуя взамен платы,
SMS и т.д.) предоставляет доступ к создаваемому пользователями каталогу ссылок на торрент-файлы, которые содержат только списки хеш-сумм.
Убедительная просьба с жалобами обращаться напрямую к пользователю, разместившему торрент файл.

Вверх