Loading...
Error

Бомбила / Серии: 1-16 [16] (Александр Калугин) [2011 г., Криминальный, драма, DVDRip]

Статистика раздачи
Размер:  8,29 GB   |    Зарегистрирован:  3 года 3 месяца   |    Скачан:  13 раз

Полного источника не было: 7 месяцев

Сидов:  0  |  0 KB/s  ]   Личеров:  0  |  0 KB/s  ]

* - сиды/пиры с внешних источников

   
 
Автор Сообщение

nemos Пол:Муж

27-Авг-2013 07:46

Бомбила


Год выпуска: 2011
Жанр: Криминальный, драма
Страна: Россия
Режиссер: Александр Калугин
В ролях: Дмитрий Миллер, Максим Щеголев, Анна Банщикова, Татьяна Сидоренко, Сергей Никоненко, Егор Баринов, Александр Яцко, Сергей Векслер, Валерий Баринов, Юрий Кузьменков, Пелагея Максимова, Константин Желдин, Наталия Антонова, Вероника Лысакова, Игорь Верник
Сюжет фильма:
Бывший спецназовец Артем Горохов обвиняется в убийстве крупного бизнесмена. Никто не верит, что Артем – обыкновенный «бомбила», а не супер-киллер. Артему грозит пожизненное заключение. Но неунывающий Артем способен найти нестандартный выход из любой ситуации. Главное оружие Артема – отменное чувство юмора, которое помогает ему выстоять в сложных ситуациях, сбежать из СИЗО и разоблачить планы воротил наркобизнеса. Артема преследуют и банда наркоторговцев, и оперативники из отдела специальных расследований. Но догнать таксиста не так-то просто.


Качество видео: DVDRip

Продолжительность: 00:46:00 серия
Формат: AVI
Видео: XviD, 720x400, 1406 kbps
Аудио: русский, AC3 2.0, 192 kbps

Код:

D:\Фильмы (роздача)\Bombila.(01-16.serii.iz.16).2011.XviD.DVDRip\Bombila.(01.serija.iz.16).2011.XviD.DVDRip.avi
   General
      Complete name : D:\Фильмы (роздача)\Bombila.(01-16.serii.iz.16).2011.XviD.DVDRip\Bombila.(01.serija.iz.16).2011.XviD.DVDRip.avi
      Format : AVI
      Format/Info : Audio Video Interleave
      File size : 529 MiB
      Duration : 46mn 0s
      Overall bit rate : 1 608 Kbps
      Writing library : VirtualDub build 34753/release
   Video #0
      ID : 0
      Format : MPEG-4 Visual
      Format profile : Advanced Simple@L5
      Format settings, BVOP : 2
      Format settings, QPel : No
      Format settings, GMC : No warppoints
      Format settings, Matrix : Default (H.263)
      Muxing mode : Packed bitstream
      Codec ID : XVID
      Codec ID/Hint : XviD
      Duration : 46mn 0s
      Bit rate : 1 406 Kbps
      Width : 720 pixels
      Height : 400 pixels
      Display aspect ratio : 16:9
      Frame rate : 25.000 fps
      Color space : YUV
      Chroma subsampling : 4:2:0
      Bit depth : 8 bits
      Scan type : Interlaced
      Scan order : Top Field First
      Compression mode : Lossy
      Bits/(Pixel*Frame) : 0.195
      Stream size : 463 MiB (87%)
      Writing library : XviD 64
   Audio #1
      ID : 1
      Format : AC-3
      Format/Info : Audio Coding 3
      Mode extension : CM (complete main)
      Format settings, Endianness : Big
      Codec ID : 2000
      Duration : 46mn 0s
      Bit rate mode : Constant
      Bit rate : 192 Kbps
      Channel(s) : 2 channels
      Channel positions : Front: L R
      Sampling rate : 48.0 KHz
      Bit depth : 16 bits
      Compression mode : Lossy
      Stream size : 63.2 MiB (12%)
      Alignment : Aligned on interleaves
      Interleave, duration : 40 ms (1.00 video frame)
      Interleave, preload duration : 512 ms
Семпл: http://multi-up.com/897707

picpicpicpic
Для увеличения картинки щелкните мышкой по превью

Этот торрент недоступен для скачивания без регистрации, однако доступен по публичной magnet-ссылке (источники с публичных трекеров). Перед использованием ссылки прочтите, пожалуйста Пользовательское соглашение, а также как можно дольше оставайтесь на раздаче! Для того, чтобы скачать сам торрент-файл (который видит больше источников), а также для того, чтобы поблагодарить релизера, вам необходимо зарегистрироваться. Если регистрироваться лень - вы можете также попробовать скачать релиз по нашим партнерским ссылкам ниже.

[underverse.su].t30362.torrent
Трекер: Зарегистрирован   [ 27.08.2013 07:46 ]  

Статус: проверено (by Чертёнок at 27.08.2013 09:41)
Поблагодарили: 1 человек
Тип торрента: публичный - доступные источники с открытых трекеров: 
Размер: 8,29 GB (занимает 1,89 DVDR, для записи нужно 2 болванки DVDR/RW)
 
 


Последний раз редактировалось: nemos (06.11.2014 09:42), всего редактировалось 2 раз(а)

konopic Пол:Муж

30-Авг-2013 18:37

Раздаю )))

Яндекс.Метрика powered by Sphinx


В Н И М А Н И Е
Сайт не распространяет и не хранит электронные версии произведений, а лишь бесплатно и без коммерческой выгоды (не требуя взамен платы,
SMS и т.д.) предоставляет доступ к создаваемому пользователями каталогу ссылок на торрент-файлы, которые содержат только списки хеш-сумм.
Убедительная просьба с жалобами обращаться напрямую к пользователю, разместившему торрент файл.

Вверх