Loading...
Error

Бомбила. Продолжение / Серии: 1-24 из 24 (Владимир Виноградов, Михаил Вассербаум) [2013 г., Криминал, драма, SatRip]

Статистика раздачи
Размер:  12,88 GB   |    Зарегистрирован:  4 года   |    Скачан:  14 раз

Полного источника не было: 8 месяцев

Сидов:  0  |  0 KB/s  ]   Личеров:  0  |  0 KB/s  ]

* - сиды/пиры с внешних источников

   
 
Автор Сообщение

nemos Пол:Муж

27-Авг-2013 07:05

Бомбила. Продолжение


Год выпуска: 2013
Жанр: Криминал, драма
Страна: Россия
Режиссер: Владимир Виноградов, Михаил Вассербаум
В ролях: Дмитрий Миллер, Максим Щёголев, Анна Банщикова, Евгений Березовский, Олеся Судзиловская, Константин Стрельников, Бесо Гатаев, Александр Рубенчик, Радмила Рубенчик, Александр Мякушко, Савва Гусев, Роман Синицын, Татьяна Рыбинец, Андрей Коровниченко, Дмитрий Калистратов, Сергей Фролов (IV), Александр Феклистов, Игорь Филиппов, Дмитрий Мазуров, Андрей Белозеров, Александра Булычёва, Максим Юдин, Юлия Морозова
Сюжет фильма:
Продолжение приключений бывшего спецназовца Артема Грохова, известного зрителю по телесериалу "Бомбила". Главный герой фильма вместе с женой Аленой и другом Игнатом едут в Сочи. Однако Алена планирует не столько отдыхать, сколько работать - поездка на курорт совпала с ее командировкой. Занятость жены раздражает Артема, они громко ссорятся на пляже на виду у толпы отдыхающих. Артем в сердцах уходит, а Алена совершает длинный заплыв, во время которого гибнет. Артем раздавлен: горе от потери жены усугубляется осознанием того, что последние слова, сказанные ей, не были словами любви. Когда обнаруживается свидетельница трагедии и заявляет, что Алену убили, расследование её гибели становится для Артема и Игната делом чести...


Качество видео: SatRip

Продолжительность: 00:46:34 серия
Формат: AVI
Видео: XviD, 720x400, 1 450 kbps
Аудио: русский, MP3 2.0, 192 kbps

Код:

D:\Фильмы (роздача)\Bombila.Prodolzhenie.2013.XviD.SATRip.Files-x\Bombila.Prodolzhenie.24.seriya.2013.XviD.SATRip.Files-x.avi
   General
      Complete name : D:\Фильмы (роздача)\Bombila.Prodolzhenie.2013.XviD.SATRip.Files-x\Bombila.Prodolzhenie.24.seriya.2013.XviD.SATRip.Files-x.avi
      Format : AVI
      Format/Info : Audio Video Interleave
      File size : 550 MiB
      Duration : 46mn 34s
      Overall bit rate : 1 652 Kbps
      Writing application : VirtualDubMod 1.5.10.3 | www.virtualdub-fr.org || (build 2550/release)
      Writing library : VirtualDubMod build 2550/release
   Video #0
      ID : 0
      Format : MPEG-4 Visual
      Format profile : Advanced Simple@L5
      Format settings, BVOP : 1
      Format settings, QPel : No
      Format settings, GMC : No warppoints
      Format settings, Matrix : Default (H.263)
      Codec ID : XVID
      Codec ID/Hint : XviD
      Duration : 46mn 34s
      Bit rate : 1 450 Kbps
      Width : 720 pixels
      Height : 400 pixels
      Display aspect ratio : 16:9
      Frame rate : 25.000 fps
      Color space : YUV
      Chroma subsampling : 4:2:0
      Bit depth : 8 bits
      Scan type : Progressive
      Compression mode : Lossy
      Bits/(Pixel*Frame) : 0.201
      Stream size : 483 MiB (88%)
      Writing library : XviD 1.2.1 (UTC 2008-12-04)
   Audio #1
      ID : 1
      Format : MPEG Audio
      Format version : Version 1
      Format profile : Layer 3
      Codec ID : 55
      Codec ID/Hint : MP3
      Duration : 46mn 34s
      Bit rate mode : Constant
      Bit rate : 192 Kbps
      Channel(s) : 2 channels
      Sampling rate : 48.0 KHz
      Compression mode : Lossy
      Stream size : 64.0 MiB (12%)
      Alignment : Aligned on interleaves
      Interleave, duration : 40 ms (1.00 video frame)
      Interleave, preload duration : 504 ms
      Writing library : LAME3.98r
      Encoding settings : -m s -V 4 -q 2 -lowpass 18.6 -b 192
Семпл: http://multi-up.com/897699

picpicpicpicpic
Для увеличения картинки щелкните мышкой по превью

Этот торрент доступен для скачивания без регистрации. Перед тем, как его скачать, прочтите, пожалуйста Пользовательское соглашение, а также как можно дольше оставайтесь на раздаче! Также вы можете выкладывать этот торрент или ссылку на него на других интернет-ресурсах, в том числе на торрент трекерах. Для получение более подробной информации о релизе, а также для того, чтобы поблагодарить релизера, вам необходимо зарегистрироваться.

[underverse.su].t30849.torrent
Трекер: Зарегистрирован   [ 12.09.2013 19:44 ]   [ торрент доступен для скачивания без регистрации ]

Статус: проверено (by Чертёнок at 12.09.2013 19:59)
Поблагодарили: 3 человека
Тип торрента: публичный - доступные источники с открытых трекеров: 
Размер: 12,88 GB (занимает 2,94 DVDR, для записи нужно 3 болванки DVDR/RW)
 
 


Последний раз редактировалось: nemos (06.11.2014 09:43), всего редактировалось 10 раз(а)

nemos Пол:Муж

27-Авг-2013 15:34

Торр файл обновлён. Добавлены серии: 23-24

Яндекс.Метрика powered by Sphinx


В Н И М А Н И Е
Сайт не распространяет и не хранит электронные версии произведений, а лишь бесплатно и без коммерческой выгоды (не требуя взамен платы,
SMS и т.д.) предоставляет доступ к создаваемому пользователями каталогу ссылок на торрент-файлы, которые содержат только списки хеш-сумм.
Убедительная просьба с жалобами обращаться напрямую к пользователю, разместившему торрент файл.

Вверх