Loading...
Error

Железный человек 3 / Iron Man 3 (Шейн Блэк) [2013 г., фантастика, боевик, триллер, BDRip] Dub (Rus,Ukr) + Original + Sub (Rus,Ukr,Eng) HQ Underverse

Статистика раздачи
Размер:  2,17 GB   |    Зарегистрирован:  3 года 3 месяца   |    Скачан:  137 раз
Сидов:  1  |  0 KB/s  ]   Личеров:  0  |  0 KB/s  ]

* - сиды/пиры с внешних источников

   
 
Автор Сообщение

HQ Underverse 

23-Авг-2013 12:51

Железный человек 3 / Iron Man 3


Год выпуска: 2013
Жанр: фантастика, боевик, триллер
Страна: США
Режиссер: Шейн Блэк
В ролях: Роберт Дауни мл., Гвинет Пэлтроу, Дон Чидл, Гай Пирс, Бен Кингсли, Ребекка Холл, Пол Беттани, Джон Фавро, Уильям Сэдлер, Джеймс Бэдж Дэйл
Сюжет фильма:
Когда мир Старка рушится на его глазах по вине неизвестных противников, Тони жаждет найти виновных и свести с ними счеты. Оказавшись в безвыходной ситуации, Старк может рассчитывать только на себя и свою изобретательность, чтобы защитить тех, кто ему дорог. Это становится настоящим испытанием для героя, которому придется не только сражаться с коварным врагом, но и разобраться в себе, чтобы найти ответ на вопрос, который давно его тревожит: что важнее — человек или костюм?

  • Мировая премьера: 18 апреля 2013
  • Российская премьера: 2 мая 2013

/
Качество видео: BDRip

Продолжительность: 02:10:33
Формат: avi
Видео: XviD, 720x304, 1916 kbps
Аудио #1: русский, дублированный [лицензия], AC3 5.1, 448 kbps
Аудио #2: английский, оригинал, AC3 5.1, 448 kbps (отдельным файлом: здесь)
Аудио #3: украинский, дублированный [iTunes], AC3 2.0, 192 kbps (отдельным файлом: здесь)
Субтитры #1: внешние, SRT, русский
Субтитры #2: внешние, SRT, английский
Субтитры #3: внешние, SRT, украинский

Код:

General
Complete name                    : Z:\windoza-share\Железный человек 3\Iron.Man.3.2013.BDRip.XviD.AC3.Rus.D.HQ.Underverse.avi
Format                           : AVI
Format/Info                      : Audio Video Interleave
Format profile                   : OpenDML
File size                        : 2.17 GiB
Duration                         : 2h 10mn
Overall bit rate                 : 2 376 Kbps
Writing application              : VirtualDubMod 1.5.10.2 (build 2540/release)
Writing library                  : VirtualDubMod build 2540/release

Video
ID                               : 0
Format                           : MPEG-4 Visual
Format profile                   : Streaming Video@L1
Format settings, BVOP            : Yes
Format settings, QPel            : No
Format settings, GMC             : No warppoints
Format settings, Matrix          : Custom
Muxing mode                      : Packed bitstream
Codec ID                         : XVID
Codec ID/Hint                    : XviD
Duration                         : 2h 10mn
Bit rate                         : 1 916 Kbps
Width                            : 720 pixels
Height                           : 304 pixels
Display aspect ratio             : 2.35
Frame rate                       : 23.976 fps
Resolution                       : 24 bits
Colorimetry                      : 4:2:0
Scan type                        : Progressive
Bits/(Pixel*Frame)               : 0.365
Stream size                      : 1.75 GiB (81%)
Writing library                  : XviD 64

Audio
ID                               : 1
Format                           : AC-3
Format/Info                      : Audio Coding 3
Codec ID                         : 2000
Duration                         : 2h 10mn
Bit rate mode                    : Constant
Bit rate                         : 448 Kbps
Channel(s)                       : 6 channels
Channel positions                : Front: L C R, Surround: L R, LFE
Sampling rate                    : 48.0 KHz
Stream size                      : 418 MiB (19%)
Alignment                        : Split accross interleaves
Interleave, duration             : 42 ms (1.00 video frame)
Interleave, preload duration     : 500 ms

General
Complete name                    : Z:\windoza-share\Железный человек 3\Iron.Man.3.2013.BDRip.XviD.AC3.Rus.D.HQ.Underverse.ENG.ac3
Format                           : AC-3
Format/Info                      : Audio Coding 3
File size                        : 418 MiB
Duration                         : 2h 10mn
Overall bit rate                 : 448 Kbps

Audio
Format                           : AC-3
Format/Info                      : Audio Coding 3
Duration                         : 2h 10mn
Bit rate mode                    : Constant
Bit rate                         : 448 Kbps
Channel(s)                       : 6 channels
Channel positions                : Front: L C R, Surround: L R, LFE
Sampling rate                    : 48.0 KHz
Stream size                      : 418 MiB (100%)

General
Complete name                    : Z:\windoza-share\Железный человек 3\Iron.Man.3.2013.BDRip.XviD.AC3.Rus.D.HQ.Underverse.UKR.ac3
Format                           : AC-3
Format/Info                      : Audio Coding 3
File size                        : 179 MiB
Duration                         : 2h 10mn
Overall bit rate                 : 192 Kbps

Audio
Format                           : AC-3
Format/Info                      : Audio Coding 3
Duration                         : 2h 10mn
Bit rate mode                    : Constant
Bit rate                         : 192 Kbps
Channel(s)                       : 2 channels
Channel positions                : L R
Sampling rate                    : 48.0 KHz
Stream size                      : 179 MiB (100%)

Релиз группы:

pic pic pic
Для увеличения картинки щелкните мышкой по превью

Этот торрент недоступен для скачивания без регистрации, однако доступен по публичной magnet-ссылке (источники с публичных трекеров). Перед использованием ссылки прочтите, пожалуйста Пользовательское соглашение, а также как можно дольше оставайтесь на раздаче! Для того, чтобы скачать сам торрент-файл (который видит больше источников), а также для того, чтобы поблагодарить релизера, вам необходимо зарегистрироваться. Если регистрироваться лень - вы можете также попробовать скачать релиз по нашим партнерским ссылкам ниже.

[underverse.su].t30252.torrent
Трекер: Зарегистрирован   [ 23.08.2013 12:51 ]  

Статус: проверено (by HQ Underverse at 23.08.2013 12:51)
Поблагодарили: 8 человек
Тип торрента: публичный - доступные источники с открытых трекеров: 
Размер: 2,17 GB (занимает 1/2 DVDR, для записи нужно 1 болванка DVDR/RW)
 
 
Похожие темы
Форум Тема Автор Торрент Отв. Посл. сооб.
Зарубежное кино [DVDRip, Low-Res HDRip, и т.д.] Железный человек 3 / Iron Man 3 (Шейн Блэк / Shane Black) [2013 г., фантастика, боевик, триллер, WEB-DLRip] Dub [iTunes Russia] Паукан
2 | 0

0 | 1502

103

15.08.2013 10:32

Зарубежное кино [DVDRip, Low-Res HDRip, и т.д.] Железный человек / Iron Man (Джон Фавро) [2008 г., фантастика, боевик, приключения, BDRip-AVC] Dub 90ytr90
3 | 0

0 | 656

25

23.12.2012 17:00

Зарубежное кино [DVDRip, Low-Res HDRip, и т.д.] Железный человек 2 / Iron Man 2 (Джон Фавро) [2010 г., фантастика, боевик, приключения, BDRip-AVC] Dub 90ytr90
3 | 0

0 | 696

25

24.12.2012 13:30

Зарубежное кино [DVDRip, Low-Res HDRip, и т.д.] Железный человек 3 / Iron Man 3 (Шейн Блэк / Shane Black) [2013 г., фантастика, боевик, триллер, WEB-DLRip] Dub [iTunes Russia] Паукан
2 | 0

0 | 1016

64

15.08.2013 06:33

Зарубежное кино [DVDRip, Low-Res HDRip, и т.д.] Железный человек 3 / Iron Man 3 (Шейн Блэк) [2013 г., фантастика, боевик, приключения, HDRip] | Лицензия Чертёнок
10 | 0

2 | 2180

192

03.09.2013 15:55

Зарубежное кино [DVDRip, Low-Res HDRip, и т.д.] Железный человек №28 / Тецуджин 28 / Tetsujin niju-hachigo (Шин Тогаси) [2005 г., фантастика, фэнтези, боевик, приключения, DVDRip] VO makkol
4 | 0

0 | 753

8

12.09.2015 11:21

Зарубежное кино HQ Железный человек / Iron Man (Джон Фавро) [2008 г., фантастика, боевик, приключения, BDRip] Dub (Rus,Ukr) + Original + Sub (Rus,Ukr,Eng) HQ Underverse HQ Underverse
0 | 1

0 | 1296

28

10.12.2012 19:56

Зарубежное кино HQ Железный человек 2 / Iron Man 2 (Джон Фавро) [2010 г., фантастика, боевик, приключения, BDRip] Dub (Rus,Ukr) + Original + Subs (Rus,Ukr,Eng) HQ Underverse HQ Underverse
0 | 0

2 | 1752

36

28.02.2013 10:54

Зарубежные мультфильмы Железный Человек: Восстание Техновора / Iron Man: Rise of Technovore (Хироши Хамасаки) [2013 г., мультфильм, фантастика, боевик, HDRip] VO 90ytr90
7 | 0

0 | 1549

46

14.04.2013 08:20

Зарубежные мультфильмы Железный человек и Халк: Союз героев / Iron Man & Hulk: Heroes United (Лео Райли) [2013 г., мультфильм, фантастика, боевик, HDRip] Dub 90ytr90
26 | 4

0 | 2117

46

27.11.2013 05:47

passer-by Пол:Муж

18-Дек-2013 12:33



Последний раз редактировалось: passer-by (18.12.2013 14:57), всего редактировалось 1 раз

passer-by Пол:Муж

18-Дек-2013 14:57

....

Яндекс.Метрика powered by Sphinx


В Н И М А Н И Е
Сайт не распространяет и не хранит электронные версии произведений, а лишь бесплатно и без коммерческой выгоды (не требуя взамен платы,
SMS и т.д.) предоставляет доступ к создаваемому пользователями каталогу ссылок на торрент-файлы, которые содержат только списки хеш-сумм.
Убедительная просьба с жалобами обращаться напрямую к пользователю, разместившему торрент файл.

Вверх