Loading...
Error

Сын отца народов / Серии: 1-12 [12] (Сергей Гинзбург, Сергей Щербин) [2013 г., Драма, SatRip]

Статистика раздачи
Размер:  6,94 GB   |    Зарегистрирован:  3 года 3 месяца   |    Скачан:  20 раз

Полного источника не было: 7 часов

Сидов:  0  |  0 KB/s  ]   Личеров:  0  |  0 KB/s  ]

* - сиды/пиры с внешних источников

   
 
Автор Сообщение

nemos Пол:Муж

20-Авг-2013 09:08

Сын отца народов


Год выпуска: 2013
Жанр: драма
Страна: Россия , Беларусь
Режиссер: Сергей Гинзбург, Сергей Щербин
В ролях: Гела Месхи, Василий Прокопьев, Анатолий Дзиваев, Сергей Газаров, Надежда Михалкова, Илья Ермолов, Алексей Вертков, Александр Никольский, Анатолий Гущин, Евгений Сангаджиев, Кристина Пакарина, Мария Жиганова, Артём Осипов, Светлана Колпакова, Юрий Маслак, Марьяна Спивак, Анна Кирина, Дмитрий Абазовик, Иван Суханов, Максим Сапрыкин, Мария Андреева
Сюжет фильма:
Сюжет нового сериала расскажет о трагической судьбе сына вождя народа. Жизнь Василия Сталина изменилась коренным образом после смерти его отца, прославившегося как в России так и за рубежом.


Качество видео: SatRip

Продолжительность: 00:51:09 серия
Видео: XviD, 720 х 400, 1367 kbps
Аудио: русский, оригинал, MP3 2.0, 128kbps

Код:

D:\Фильмы (роздача)\Сын отца народов.2013.SATRip\Сын отца народов.01.avi
   General
      Complete name : D:\Фильмы (роздача)\Сын отца народов.2013.SATRip\Сын отца народов.01.avi
      Format : AVI
      Format/Info : Audio Video Interleave
      File size : 551 MiB
      Duration : 51mn 9s
      Overall bit rate : 1 505 Kbps
      Writing application : VirtualDubMod 1.5.10.2 (build 2540/release)
      Writing library : VirtualDubMod build 2540/release
   Video #0
      ID : 0
      Format : MPEG-4 Visual
      Format profile : Advanced Simple@L5
      Format settings, BVOP : 2
      Format settings, QPel : No
      Format settings, GMC : No warppoints
      Format settings, Matrix : Default (MPEG)
      Codec ID : XVID
      Codec ID/Hint : XviD
      Duration : 51mn 9s
      Bit rate : 1 367 Kbps
      Width : 720 pixels
      Height : 400 pixels
      Display aspect ratio : 16:9
      Frame rate : 25.000 fps
      Color space : YUV
      Chroma subsampling : 4:2:0
      Bit depth : 8 bits
      Scan type : Progressive
      Compression mode : Lossy
      Bits/(Pixel*Frame) : 0.190
      Stream size : 500 MiB (91%)
      Writing library : XviD 64
   Audio #1
      ID : 1
      Format : MPEG Audio
      Format version : Version 1
      Format profile : Layer 3
      Mode : Joint stereo
      Codec ID : 55
      Codec ID/Hint : MP3
      Duration : 51mn 9s
      Bit rate mode : Constant
      Bit rate : 128 Kbps
      Channel(s) : 2 channels
      Sampling rate : 48.0 KHz
      Compression mode : Lossy
      Stream size : 46.8 MiB (9%)
      Alignment : Aligned on interleaves
      Interleave, duration : 40 ms (1.00 video frame)
      Interleave, preload duration : 504 ms
      Writing library : LAME3.99r
      Encoding settings : -m j -V 4 -q 2 -lowpass 17 -b 128
Семпл: http://multi-up.com/895499

picpicpicpicpicpicpicpicpicpicpic
Для увеличения картинки щелкните мышкой по превью

Этот торрент недоступен для скачивания без регистрации, однако доступен по публичной magnet-ссылке (источники с публичных трекеров). Перед использованием ссылки прочтите, пожалуйста Пользовательское соглашение, а также как можно дольше оставайтесь на раздаче! Для того, чтобы скачать сам торрент-файл (который видит больше источников), а также для того, чтобы поблагодарить релизера, вам необходимо зарегистрироваться. Если регистрироваться лень - вы можете также попробовать скачать релиз по нашим партнерским ссылкам ниже.

[underverse.su].t30261.torrent
Трекер: Зарегистрирован   [ 23.08.2013 18:08 ]  

Статус: проверено (by Паукан at 23.08.2013 21:54)
Поблагодарили: 4 человека
Тип торрента: публичный - доступные источники с открытых трекеров: 
Размер: 6,94 GB (занимает 1,59 DVDR, для записи нужно 2 болванки DVDR/RW)
 
 
Похожие темы
Форум Тема Автор Торрент Отв. Посл. сооб.
xUSSR сериалы Сын отца народов / Серии: 1-12 of 12 (Сергей Гинзбург, Сергей Щербин) [2013 г., биография, исторический фильм, SATRip] Печаль'ka
1 | 1

0 | 884

34

23.08.2013 10:53



Последний раз редактировалось: nemos (23.08.2013 18:47), всего редактировалось 3 раз(а)

nemos Пол:Муж

21-Авг-2013 07:05

Добавлены серии: 10 - 12

Яндекс.Метрика powered by Sphinx


В Н И М А Н И Е
Сайт не распространяет и не хранит электронные версии произведений, а лишь бесплатно и без коммерческой выгоды (не требуя взамен платы,
SMS и т.д.) предоставляет доступ к создаваемому пользователями каталогу ссылок на торрент-файлы, которые содержат только списки хеш-сумм.
Убедительная просьба с жалобами обращаться напрямую к пользователю, разместившему торрент файл.

Вверх