Loading...
Error

Эффект колибри / Hummingbird (Стивен Найт) [2013 г., боевик, триллер, WEB-DLRip-AVC ] DuB | iTunes Russia

Статистика раздачи
Размер:  2,02 GB   |    Зарегистрирован:  3 года 3 месяца   |    Скачан:  25 раз

Полного источника не было: 2 года 4 месяца

Сидов:  0  |  0 KB/s  ]   Личеров:  0  |  0 KB/s  ]

* - сиды/пиры с внешних источников

   
 
Автор Сообщение

Чертёнок Пол:Муж

12-Авг-2013 10:56

Эффект колибри / Hummingbird


Информация о фильме
Название: Эффект колибри
Оригинальное название: Hummingbird
Год выпуска: 2013
Жанр: Боевик, триллер
Выпущено: США, IM Global, Shoebox Films
Режиссер: Стивен Найт
В ролях: Джейсон Стэйтем, Агата Бузек, Вики МакКлюр, Бенедикт Вонг, Ли Асквит-Коу, Ли Николас Харрис, Крис Коулин, Санти Скинелли, Дэвид Брэдли (III), Шиван Хьюлетт

О фильме: Джоуи Джонс, бывший спецназовец, пытается избавиться от мучительных воспоминаний в лондонских трущобах. Чтобы восстановить справедливость в этом перевернутом мире, он выдает себя за другого человека и превращается в беспощадного ангела мести, который готов беспощадно расправляться с преступниками всех мастей. Изменить его сможет только неожиданная любовь…


Файл
Качество: WEB-DLRip (AVC)
Видео: MPEG-4 AVC, 2110 Кбит/с, 1024x424, 23.976 кадр/с
Аудио: Русский, английский (АС3, 6 ch, 384 Кбит/с)
Размер: 2.02 ГБ
Продолжительность: 01:40:23
Перевод: Дублированный (iTunes Russia)
Субтитры: Английские
Общее
Полное имя : C:Users-DownloadsHummingbird.2013.x264.WEB-DLRip.(AVC).ExKinoRay.mkv
Формат : Matroska
Размер файла : 2,02 Гбайт
Продолжительность : 1 ч. 40 м.
Общий поток : 2879 Кбит/сек
Название фильма : Эффект колибри. 2013. Rip by: ollan
Дата кодирования : UTC 2013-08-12 06:45:15
Программа кодирования : mkvmerge v5.6.0 ('Kenya Kane') built on May 27 2012 16:44:04
Библиотека кодирования : libebml v1.2.3 + libmatroska v1.3.0

Видео
Идентификатор : 1
Формат : AVC
Формат/Информация : Advanced Video Codec
Профиль формата : High@L4.1
Параметр CABAC формата : Да
Параметр ReFrames формата : 9 кадров
Режим смешивания : Container profile=Unknown@4.1
Идентификатор кодека : V_MPEG4/ISO/AVC
Продолжительность : 1 ч. 40 м.
Битрейт : 2053 Кбит/сек
Номинальный битрейт : 2110 Кбит/сек
Ширина : 1024 пикселей
Высота : 424 пикселей
Соотношение сторон : 2,40:1
Частота кадров : 23,976 кадра/сек
Разрешение : 24 бит
Колориметрия : 4:2:0
Тип развёртки : Прогрессивная
Бит/(Пиксели*Кадры) : 0.197
Размер потока : 1,44 Гбайт (71%)
Библиотека кодирования : x264 core 125 r2200 999b753
Настройки программы : cabac=1 / ref=9 / deblock=1:-2:-2 / analyse=0x3:0x133 / me=umh / subme=11 / psy=1 / psy_rd=1.00:0.00 / mixed_ref=1 / me_range=32 / chroma_me=1 / trellis=2 / 8x8dct=1 / cqm=0 / deadzone=21,11 / fast_pskip=0 / chroma_qp_offset=-2 / threads=12 / lookahead_threads=2 / sliced_threads=0 / nr=0 / decimate=0 / interlaced=0 / bluray_compat=0 / constrained_intra=0 / bframes=9 / b_pyramid=2 / b_adapt=1 / b_bias=0 / direct=3 / weightb=1 / open_gop=0 / weightp=2 / keyint=240 / keyint_min=23 / scenecut=40 / intra_refresh=0 / rc_lookahead=80 / rc=2pass / mbtree=1 / bitrate=2110 / ratetol=1.0 / qcomp=0.60 / qpmin=0 / qpmax=69 / qpstep=4 / cplxblur=20.0 / qblur=0.5 / ip_ratio=1.40 / aq=1:1.00

Аудио #1
Идентификатор : 2
Формат : AC-3
Формат/Информация : Audio Coding 3
Идентификатор кодека : A_AC3
Продолжительность : 1 ч. 40 м.
Вид битрейта : Постоянный
Битрейт : 384 Кбит/сек
Каналы : 6 каналов
Расположение каналов : Front: L C R, Surround: L R, LFE
Частота : 48,0 КГц
Размер потока : 276 Мбайт (13%)
Заголовок : Дублированый (iTunes Russia)
Язык : Russian

Аудио #2
Идентификатор : 3
Формат : AC-3
Формат/Информация : Audio Coding 3
Идентификатор кодека : A_AC3
Продолжительность : 1 ч. 40 м.
Вид битрейта : Постоянный
Битрейт : 384 Кбит/сек
Каналы : 6 каналов
Расположение каналов : Front: L C R, Surround: L R, LFE
Частота : 48,0 КГц
Размер потока : 276 Мбайт (13%)

Текст
Идентификатор : 4
Формат : UTF-8
Идентификатор кодека : S_TEXT/UTF8
Идентификатор кодека/Информация : UTF-8 Plain Text
picpicpicpicpicpicpic
Для увеличения картинки щелкните мышкой по превью

Этот торрент недоступен для скачивания без регистрации, однако доступен по публичной magnet-ссылке (источники с публичных трекеров). Перед использованием ссылки прочтите, пожалуйста Пользовательское соглашение, а также как можно дольше оставайтесь на раздаче! Для того, чтобы скачать сам торрент-файл (который видит больше источников), а также для того, чтобы поблагодарить релизера, вам необходимо зарегистрироваться. Если регистрироваться лень - вы можете также попробовать скачать релиз по нашим партнерским ссылкам ниже.

[underverse.su].t29988.torrent
Трекер: Зарегистрирован   [ 12.08.2013 10:56 ]  

Статус: проверено (by Чертёнок at 12.08.2013 10:56)
Поблагодарили: 1 человек
Тип торрента: публичный - доступные источники с открытых трекеров: 
Размер: 2,02 GB (занимает 0,46 DVDR, для записи нужно 1 болванка DVDR/RW)
 
 
Похожие темы
Форум Тема Автор Торрент Отв. Посл. сооб.
Зарубежное кино [DVDRip, Low-Res HDRip, и т.д.] Эффект колибри / Hummingbird (Стивен Найт) [2013 г., триллер, драма, криминал, HDRip] Dub [iTunes Russia] Паукан
8 | 0

0 | 1386

147

24.08.2013 07:53

Зарубежное кино [DVDRip, Low-Res HDRip, и т.д.] Эффект колибри / Hummingbird (Стивен Найт) [2013 г., триллер, драма, криминал, боевик, BDRip-AVC] Dub + Original + Sub (Eng) 90ytr90
28 | 1

0 | 1342

61

28.09.2013 05:24

Зарубежное кино [DVD / HDDVD / BD / Remux] Эффект колибри / Hummingbird (Стивен Найт / Steven Knight) [2013, США, Великобритания, триллер, драма, криминал, боевик, Blu-ray disc (custom)] Dub + Sub Rus, Eng + Original Eng uzi2009
1 | 1

0 | 509

1

13.03.2014 08:47

Зарубежное кино [HDDVDRip / BDRip / WEB-DL / HDTV 1080/720р] Эффект колибри / Hummingbird (Стивен Найт) [2013 г., триллер, драма, криминал, боевик, BDRip 720p] Dub + Original + Sub (Rus, Eng) 90ytr90
24 | 1

0 | 408

12

27.09.2013 13:16

Зарубежное кино [HDDVDRip / BDRip / WEB-DL / HDTV 1080/720р] Эффект колибри / Hummingbird (Стивен Найт) [2013 г., боевик, триллер, BDRip 720p] Dub + Original | iTunes Russia Чертёнок
7 | 3

3 | 3475

78

24.08.2013 07:55

Зарубежное кино [HDDVDRip / BDRip / WEB-DL / HDTV 1080/720р] Эффект колибри / Hummingbird (Стивен Найт) [2013 г., боевик, триллер, WEB-DL 720p] DuB | iTunes Russia Чертёнок
0 | 0

1 | 727

29

17.08.2013 00:00

Зарубежное кино [HDDVDRip / BDRip / WEB-DL / HDTV 1080/720р] Эффект колибри / Hummingbird (Стивен Найт) [2013., боевик, триллер, BDRip 1080p ] Dub + Original bezug22
0 | 0

1 | 1222

26

17.09.2013 14:40


Яндекс.Метрика powered by Sphinx


В Н И М А Н И Е
Сайт не распространяет и не хранит электронные версии произведений, а лишь бесплатно и без коммерческой выгоды (не требуя взамен платы,
SMS и т.д.) предоставляет доступ к создаваемому пользователями каталогу ссылок на торрент-файлы, которые содержат только списки хеш-сумм.
Убедительная просьба с жалобами обращаться напрямую к пользователю, разместившему торрент файл.

Вверх