Loading...
Error

Королева - львица. Воительница равнин / Queen - a lioness. Warrior plains [2009, HDTVRip-AVC] DuB

Статистика раздачи
Размер:  1,2 GB   |    Зарегистрирован:  3 года 3 месяца   |    Скачан:  5 раз

Полного источника не было: 2 года 7 месяцев

Сидов:  0  |  0 KB/s  ]   Личеров:  0  |  0 KB/s  ]

* - сиды/пиры с внешних источников

   
 
Автор Сообщение

Чертёнок Пол:Муж

10-Авг-2013 23:32

Королева - львица. Воительница равнин / Queen - a lioness. Warrior plains


Информация о фильме
Название: Королева - львица. Воительница равнин
Оригинальное название: Queen - a lioness. Warrior plains
Год выхода: 2009
Жанр: Документальный, научно-познавательный, исследования, природа, флора, фауна

О фильме:
Лев - царь африканских джунглей. Среди 35 видов семейства кошачьих, только львы живут парами. Это документальный фильм о жизни львиц, живущих в национальном парке Серенгети, в Африке.

Страна: Южная Корея
Продолжительность: 00:49:56
Перевод: Дублированный
Файл
Кодек: H.264
Формат: MKV
Качество: HDTVRip (AVC)
Видео: MPEG-4 AVC, 3000 Кбит/с, 1024x576
Звук: AC3, 2 ch, 448 Кбит/с
Общее
Уникальный идентификатор : 240223833570590316233085113002379810489 (0xB4B96D6CE605789ABE4E92CB262196B9)
Полное имя : E:6Koroleva.lvica.Voitelnica.ravnin.2009.x264.HDTVRip.(AVC).ExKinoRay.mkv
Формат : Matroska
Размер файла : 1,20 Гбайт
Продолжительность : 49 м.
Общий поток : 3450 Кбит/сек
Название фильма : Koroleva.lvica.Voitelnica.ravnin.2012.x264.HDTVRip.(AVC).ExKinoRay
Дата кодирования : UTC 2013-08-07 17:16:55
Программа кодирования : mkvmerge v4.0.0 ('The Stars were mine') сборка от Jun 6 2010 16:18:42
Библиотека кодирования : libebml v1.0.0 + libmatroska v1.0.0

Видео
Идентификатор : 1
Формат : AVC
Формат/Информация : Advanced Video Codec
Профиль формата : High@L4.1
Параметр CABAC формата : Да
Параметр ReFrames формата : 8 кадров
Параметры GOP формата : M=3, N=33
Идентификатор кодека : V_MPEG4/ISO/AVC
Продолжительность : 49 м.
Битрейт : 3000 Кбит/сек
Ширина : 1024 пикс.
Высота : 576 пикс.
Соотношение сторон : 16:9
Частота кадров : 25,000 кадр/сек
Цветовое пространство : YUV
Подвыборка цветности : 4:2:0
Битовая глубина : 8 бит
Тип развёртки : Прогрессивная
Бит/(Пиксели*Кадры) : 0.203
Размер потока : 1,02 Гбайт (85%)
Заголовок : Rip by Enigma-Vladislav71
Библиотека кодирования : x264 core 129 r2245 bc13772
Настройки программы : cabac=1 / ref=8 / deblock=1:-2:-2 / analyse=0x3:0x133 / me=umh / subme=11 / psy=1 / psy_rd=1.00:0.00 / mixed_ref=1 / me_range=48 / chroma_me=1 / trellis=2 / 8x8dct=1 / cqm=0 / deadzone=21,11 / fast_pskip=0 / chroma_qp_offset=-2 / threads=3 / lookahead_threads=1 / sliced_threads=0 / nr=0 / decimate=0 / interlaced=0 / bluray_compat=0 / constrained_intra=0 / bframes=8 / b_pyramid=2 / b_adapt=2 / b_bias=0 / direct=3 / weightb=1 / open_gop=0 / weightp=2 / keyint=250 / keyint_min=25 / scenecut=40 / intra_refresh=0 / rc_lookahead=40 / rc=2pass / mbtree=1 / bitrate=3000 / ratetol=1.0 / qcomp=0.60 / qpmin=10 / qpmax=51 / qpstep=4 / cplxblur=20.0 / qblur=0.5 / ip_ratio=1.40 / aq=2:1.00
Язык : English

Аудио
Идентификатор : 2
Формат : AC-3
Формат/Информация : Audio Coding 3
Расширение режима : CM (complete main)
Идентификатор кодека : A_AC3
Продолжительность : 49 м.
Вид битрейта : Постоянный
Битрейт : 448 Кбит/сек
Каналы : 2 канала
Расположение каналов : Front: L R
Частота : 48,0 КГц
Битовая глубина : 16 бит
Метод сжатия : С потерями
Размер потока : 160 Мбайт (13%)
Язык : Russian
picpicpicpic
Для увеличения картинки щелкните мышкой по превью

Этот торрент недоступен для скачивания без регистрации, однако доступен по публичной magnet-ссылке (источники с публичных трекеров). Перед использованием ссылки прочтите, пожалуйста Пользовательское соглашение, а также как можно дольше оставайтесь на раздаче! Для того, чтобы скачать сам торрент-файл (который видит больше источников), а также для того, чтобы поблагодарить релизера, вам необходимо зарегистрироваться. Если регистрироваться лень - вы можете также попробовать скачать релиз по нашим партнерским ссылкам ниже.

[underverse.su].t29946.torrent
Трекер: Зарегистрирован   [ 10.08.2013 23:32 ]  

Статус: проверено (by Чертёнок at 10.08.2013 23:34)
Поблагодарили: 1 человек
Тип торрента: публичный - доступные источники с открытых трекеров: 
Размер: 1,2 GB (занимает 0,27 DVDR, для записи нужно 1 болванка DVDR/RW)
 
 

Яндекс.Метрика powered by Sphinx


В Н И М А Н И Е
Сайт не распространяет и не хранит электронные версии произведений, а лишь бесплатно и без коммерческой выгоды (не требуя взамен платы,
SMS и т.д.) предоставляет доступ к создаваемому пользователями каталогу ссылок на торрент-файлы, которые содержат только списки хеш-сумм.
Убедительная просьба с жалобами обращаться напрямую к пользователю, разместившему торрент файл.

Вверх