Loading...
Error

Новая Школа Императора / The Emperor's New School / Сезон: 1-2 of 2, Серии: 1-47 of 47 (Хауи Паркинс) [2006 - 2008 г., мультфильм, комедия, TVRip] Dub

Статистика раздачи
Размер:  8,99 GB   |    Зарегистрирован:  3 года 4 месяца   |    Скачан:  4 раза

Полного источника не было: 8 месяцев

Сидов:  0  |  0 KB/s  ]   Личеров:  0  |  0 KB/s  ]

* - сиды/пиры с внешних источников

   
 
Автор Сообщение

Печаль'ka Пол:Жен

07-Авг-2013 09:44

Новая Школа Императора / The Emperor's New School


Год выпуска: 2006 - 2008
Жанр: мультфильм, комедия
Сезон: 1-2
Страна: США
Режиссер: Хауи Паркинс
Роли озвучивали: Алексей Федотов, Андрей Тенетко, Борис Улитин, Алексей Федькин, Варвара Чабан
Сюжет фильма:
Император Кузко знакомый всем по фильму «Новое обличие императора» продолжает свое шоу, на этот раз действия разворачиваются в школе…. ведь для того чтобы управлять государством нужны твердые знания, и если Кузко их не получит он не станет императорам и как обычно ему хочет помешать завоевать по праву принадлежащий ему трон «наша» старая знакомая колдунья Изма.
|
Качество видео: TVRip

Продолжительность: 00:21:41
Формат: avi
Видео: DivX 5, 576x432, 1341 kbps
Аудио: русский, дублированный (ОРТ), MP3 2.0, 128 kbps
s1e01 - Rabbit Face
s1e02 - Squeakend At Bucky's.Kuzco Fever
s1e03 - Empress Malina.The Adventures of Red-Eyed Tree Frog Man
s1e04 - Hungry, Hungry Llama.Only The Wrong Survive
s1e05 - Cart Wash.Battle of the Bots
s1e06 - Girls Behaving Oddly
s1e07 - The Lost Kids.The Big Fight
s1e08 - Kuzclone
s1e09 - Unfit to Print.The Emperor's New Pet
s1e10 - Peasant for a Day
s1e11 - Fortune Cookie Day.Gold Fool's
s1e12 - The Mystery of Micchu Pachu
s1e14 - Clash of the Families
s1e15 - The Bride of Kuzco
s1e16 - U.F.kuzcO.Attack Sub
s1e17 - Kronk Moves In
s1e18 - Kuzcogarten.Evil and Eviler
s1e19 - The Yzma That Stole Kuzcoween.Monster Masquerade
s1e20 - Oops, All Doodles.Chipmunky Business
s1e21 - Clash of the Families

s2e01 - The Emperor's New Tuber.Room for Improvement.2007
s2e02 - Picture This!.TV or Not TV.2007
s2e03 - Cool Summer.Prisoner of Kuzcoban.2007
s2e05 - Show Me the Monkey.Demon Llama.2007
s2e06 - Kuz-Cop.How Now Sea Cow.2007
s2e07 - Working Girl.A Fair To Remember.2007
s2e08 - Father O'Mine.Everyone Loves Kuzco.2008
s2e09 - Mudka's Secret Recipe.The Emperor's New Home School.2007
s2e10 - The Emperor's New School Spirit.Card Wars.2007
s2e11 - No Man Is An Island.Vincent Van Guaka.2008
s2e13 - Air Kuzco.Kronkenitza.2008
s2e14 - Citizen Kronk.The Pajama Llama Dilemma.2008
s2e15 - Curse of the Moon Beast.Aww, Nuts!.2007
s2e16 - Come Fly With Me.Project Poncho.2007
s2e17 - A Giftmas Story.2007
s2e19 - The Good, The Bad, and the Kronk.Mudka's #13.2008
s2e21 - Guaka Rules.2008
s2e22 - Malina's Big Brake.Hotel Kuzco.2008
s2e23 - Puff Piece.Take My Advice.2008
s2e24 - Yzbot.The Puma Whisper.2008
s2e25 - Faking the Grade.Eco Kuzco.2008
s2e26 - The Emperor's New Show.Too Many Malinas.2008
s2e27 - Cornivale.2008
s2e28 - Kronk the Magnificent.Kamp Kuzco.2008
s2e29 - Groove Remover.Overachiever's Club.2008
s2e30 - Kuzco's Little Secret.Kuzco Kazooza.2008
s2e31 - Graduation Groove.2008

Код:

General
Complete name                    : D:\Movie\Новая Школа Императора\Новая Школа Императора - The Emperor's New School 1,2 сезон\Сезон 1\s1e05 - Cart Wash.Battle of the Bots.2006.Alex_Ice.avi
Format                           : AVI
Format/Info                      : Audio Video Interleave
File size                        : 230 MiB
Duration                         : 21mn 41s
Overall bit rate                 : 1 479 Kbps
Writing library                  : VirtualDub build 13870/release

Video
ID                               : 0
Format                           : MPEG-4 Visual
Format settings, BVOP            : Yes
Format settings, QPel            : No
Format settings, GMC             : 2 warppoints
Format settings, Matrix          : Default (H.263)
Muxing mode                      : Packed bitstream
Codec ID                         : DX50
Codec ID/Hint                    : DivX 5
Duration                         : 21mn 41s
Bit rate                         : 1 341 Kbps
Width                            : 576 pixels
Height                           : 432 pixels
Display aspect ratio             : 4/3
Frame rate                       : 25.000 fps
Resolution                       : 24 bits
Colorimetry                      : 4:2:0
Scan type                        : Progressive
Bits/(Pixel*Frame)               : 0.216
Stream size                      : 208 MiB (91%)
Writing library                  : DivX 5.0.4 (UTC 2003-04-17)

Audio
ID                               : 1
Format                           : MPEG Audio
Format version                   : Version 1
Format profile                   : Layer 3
Codec ID                         : 55
Codec ID/Hint                    : MP3
Duration                         : 21mn 41s
Bit rate mode                    : Constant
Bit rate                         : 128 Kbps
Channel(s)                       : 2 channels
Sampling rate                    : 48.0 KHz
Resolution                       : 16 bits
Stream size                      : 19.9 MiB (9%)
Alignment                        : Split accross interleaves
Interleave, duration             : 40 ms (1.00 video frame)
Interleave, preload duration     : 451 ms

picpicpicpic
picpicpicpic
Для увеличения картинки щелкните мышкой по превью

Этот торрент недоступен для скачивания без регистрации, однако доступен по публичной magnet-ссылке (источники с публичных трекеров). Перед использованием ссылки прочтите, пожалуйста Пользовательское соглашение, а также как можно дольше оставайтесь на раздаче! Для того, чтобы скачать сам торрент-файл (который видит больше источников), а также для того, чтобы поблагодарить релизера, вам необходимо зарегистрироваться. Если регистрироваться лень - вы можете также попробовать скачать релиз по нашим партнерским ссылкам ниже.

[underverse.su].t29846.torrent
Трекер: Зарегистрирован   [ 07.08.2013 09:44 ]  

Статус: проверено (by Печаль'ka at 07.08.2013 09:44)
Поблагодарили: пока никто не поблагодарил...
Тип торрента: публичный - доступные источники с открытых трекеров: 
Размер: 8,99 GB (занимает 2,05 DVDR, для записи нужно 3 болванки DVDR/RW)
 
 

Яндекс.Метрика powered by Sphinx


В Н И М А Н И Е
Сайт не распространяет и не хранит электронные версии произведений, а лишь бесплатно и без коммерческой выгоды (не требуя взамен платы,
SMS и т.д.) предоставляет доступ к создаваемому пользователями каталогу ссылок на торрент-файлы, которые содержат только списки хеш-сумм.
Убедительная просьба с жалобами обращаться напрямую к пользователю, разместившему торрент файл.

Вверх