Loading...
Error

ВМФ СССР. Хроника Победы, (т. к. Звезда), 8 фильмов из 16 (Д. Андреев) [2012 г., Документальный, DVDRip]

Статистика раздачи
Размер:  6,88 GB   |    Зарегистрирован:  3 года 3 месяца   |    Скачан:  13 раз
Сидов:  1  |  0 KB/s  ]   Личеров:  0  |  0 KB/s  ]

* - сиды/пиры с внешних источников

   
 
Автор Сообщение

ispanecmax 

05-Авг-2013 18:16

ВМФ СССР. Хроника Победы


Год выпуска: 2012
Жанр: Документальный
Страна: Россия
Режиссер: Д. Андреев
Сюжет фильма:
Документальный сериал, посвященный истории побед военно-морского флота СССР
Качество видео: DVDRip
Формат: mpg
Видео: XviD, 704x576, 1840 kbps
Аудио: МР3, 192 kbps, 2 ch
General
Complete name : E:\Документалистика\ВМФ СССР. Хроника Победы\Фильм 1 - Линкор Марат.mpg
Format : MPEG-PS
File size : 883 MiB
Duration : 24mn 7s
Overall bit rate mode : Variable
Overall bit rate : 2117 Kbps
Writing library : (c) 1998-2011 Womble Multimedia, Inc. / MPEG Video Wizard DVD 5.0.1.100 (03/2011) / May 27 2011
Video #224
ID : 224 (0xE0)
Format : MPEG Video
Format version : Version 2
Format profile : Main@Main
Format settings, BVOP : Yes
Format settings, Matrix : Custom
Duration : 24mn 7s
Bit rate mode : Variable
Bit rate : 1840 Kbps
Width : 704 pixels
Height : 576 pixels
Display aspect ratio : 4:3
Frame rate : 25.000 fps
Standard : PAL
Color space : YUV
Chroma subsampling : 4:2:0
Bit depth : 8 bits
Compression mode : Lossy
Bits/(Pixel*Frame) : 0.477
Stream size : 832 MiB (94%)
Writing library : (c) 1998-2011 Womble Multimedia, Inc. / MPEG Video Wizard DVD 5.0.1.100 (03/2011) / May 27 2011
Audio #192
ID : 192 (0xC0)
Format : MPEG Audio
Format version : Version 1
Format profile : Layer 2
Duration : 24mn 7s
Bit rate mode : Constant
Bit rate : 192 Kbps
Channel(s) : 2 channels
Sampling rate : 48.0 KHz
Compression mode : Lossy
Stream size : 33.1 MiB (4%)
picpicpic
Для увеличения картинки щелкните мышкой по превью

Этот торрент недоступен для скачивания без регистрации, однако доступен по публичной magnet-ссылке (источники с публичных трекеров). Перед использованием ссылки прочтите, пожалуйста Пользовательское соглашение, а также как можно дольше оставайтесь на раздаче! Для того, чтобы скачать сам торрент-файл (который видит больше источников), а также для того, чтобы поблагодарить релизера, вам необходимо зарегистрироваться. Если регистрироваться лень - вы можете также попробовать скачать релиз по нашим партнерским ссылкам ниже.

[underverse.su].t29811.torrent
Трекер: Зарегистрирован   [ 05.08.2013 18:16 ]  

Статус: проверено (by Чертёнок at 06.08.2013 09:57)
Поблагодарили: 2 человека
Тип торрента: публичный - доступные источники с открытых трекеров: 
Размер: 6,88 GB (занимает 1,57 DVDR, для записи нужно 2 болванки DVDR/RW)
 
 
Похожие темы
Форум Тема Автор Торрент Отв. Посл. сооб.
Исторические фильмы ВМФ СССР. Хроника победы [16 из 16] (Д. Андреев) [2012 г., исторический, SATRemux] Чертёнок
0 | 0

0 | 1398

10

21.09.2013 09:01

Чертёнок Пол:Муж

05-Авг-2013 18:42

Инфо-файл под спойлер,тех.данные видео и аудио? :Search:


Последний раз редактировалось: Чертёнок (06.08.2013 09:42), всего редактировалось 1 раз

ispanecmax 

06-Авг-2013 05:48

Чертёнок
Че?

Чертёнок Пол:Муж

06-Авг-2013 09:47

ЧЁ? в отстоиник вот чё, вот так примерно должно быть
Видео: XviD, 720x400, 1930 kbps
Аудио: AC3, 192 kbps, 2 ch
Ладно я сегодня добрый сам зделаю! :lol:

mixai1 Пол:Муж

21-Сен-2013 08:40

:(
неделю держу комп включенным и немогу скачать этот фильм.
помогите!!!!!

Чертёнок Пол:Муж

21-Сен-2013 08:50

Вот от сюда качай

rutororg

Яндекс.Метрика powered by Sphinx


В Н И М А Н И Е
Сайт не распространяет и не хранит электронные версии произведений, а лишь бесплатно и без коммерческой выгоды (не требуя взамен платы,
SMS и т.д.) предоставляет доступ к создаваемому пользователями каталогу ссылок на торрент-файлы, которые содержат только списки хеш-сумм.
Убедительная просьба с жалобами обращаться напрямую к пользователю, разместившему торрент файл.

Вверх