Loading...
Error

Никто не выжил / No One Lives (Рюхэй Китамура / Ryuhei Kitamura) [2012, США, триллер, ужасы, BDRip-AVC] [USA Transfer] Dub + Original (Eng) +Sub (Rus, Eng)

Статистика раздачи
Размер:  2,17 GB   |    Зарегистрирован:  3 года 3 месяца   |    Скачан:  29 раз

Полного источника не было: 3 часа

Сидов:  0  |  0 KB/s  ]   Личеров:  0  |  0 KB/s  ]

* - сиды/пиры с внешних источников

   
 
Автор Сообщение

Garnett Пол:Муж

05-Авг-2013 17:54

Никто не выжил / No One Lives
«Everyone Runs. Everyone Hides.»
Страна: США
Жанр
: Триллер, ужасы
Год выпуска: 2012
Продолжительность: 01:26:23
Перевод#1: Профессиональный (полное дублирование)
Оригинальная аудиодорожка: английский
Cубтитры: русские, английские
Режиссер: Рюхэй Китамура / Ryuhei Kitamura
В ролях
Люк Эванс, Эделейд Клеменс, Ли Тергесен, Дерек Магияр, Америка Оливо, Бо Напп, Линдси Шоу, Джордж Мердок, Лаура Рэмси, Гэри Граббс.
Описание
Безжалостные преступники спрятали в заброшенном доме двух заложников, юношу и девушку. Однако через некоторое время головорезы находят заложницу мертвой и неожиданно понимают, что юноша не так прост, как казался на первый взгляд. И теперь это он на них охотится...
Качество видео: BDRip-AVC
Контейнер: MKV
Видео: AVC, 1152x480 (2,40:1), 2824 kbps, 23.976 fps, quality: 0.213
Аудио: AC-3, 384 kbps, Dolby Digital, 3/2 (L,C,R,l,r) + LFE ch, 48 KHz |Дубляж|
Аудио: AC-3, 384 kbps, Dolby Digital, 3/2 (L,C,R,l,r) + LFE ch, 48 KHz |Оригинал|
Формат субтитров: softsub (SRT)


x264 [info]: frame I:930 Avg QP:15.77 size: 74085
x264 [info]: frame P:26641 Avg QP:19.43 size: 24096
x264 [info]: frame B:96701 Avg QP:21.96 size: 11558
x264 [info]: consecutive B-frames: 3.4% 3.1% 4.4% 13.8% 17.7% 39.5% 6.8% 3.1% 3.6% 4.6%
x264 [info]: mb I I16..4: 12.1% 72.9% 15.0%
x264 [info]: mb P I16..4: 0.4% 8.0% 0.6% P16..4: 28.0% 32.9% 8.9% 2.6% 0.2% skip:18.4%
x264 [info]: mb B I16..4: 0.0% 1.6% 0.0% B16..8: 39.5% 17.7% 3.1% direct: 5.4% skip:32.7% L0:44.7% L1:47.6% BI: 7.7%
x264 [info]: 8x8 transform intra:88.2% inter:56.0%
x264 [info]: direct mvs spatial:96.9% temporal:3.1%
x264 [info]: coded y,uvDC,uvAC intra: 93.1% 80.6% 55.2% inter: 25.9% 14.8% 1.8%
x264 [info]: i16 v,h,dc,p: 43% 18% 7% 31%
x264 [info]: i8 v,h,dc,ddl,ddr,vr,hd,vl,hu: 8% 6% 11% 11% 14% 13% 12% 12% 12%
x264 [info]: i4 v,h,dc,ddl,ddr,vr,hd,vl,hu: 9% 9% 8% 10% 15% 14% 12% 11% 13%
x264 [info]: i8c dc,h,v,p: 40% 23% 19% 18%
x264 [info]: Weighted P-Frames: Y:4.5% UV:3.0%
x264 [info]: ref P L0: 41.8% 6.1% 19.3% 7.6% 6.7% 4.6% 4.2% 2.1% 2.2% 1.8% 1.8% 1.6% 0.2% 0.0%
x264 [info]: ref B L0: 69.1% 13.2% 6.6% 3.3% 2.3% 1.9% 1.5% 0.9% 0.7% 0.5% 0.2%
x264 [info]: ref B L1: 91.3% 8.7%
x264 [info]: kb/s:2822.18
Формат : Matroska
Версия формата : Version 2
Размер файла : 2,17 Гбайт
Продолжительность : 1 ч. 26 м.
Общий поток : 3592 Кбит/сек
Название фильма : Никто не выжил / No One Lives
Дата кодирования : UTC 2013-08-04 13:23:47
Программа кодирования : mkvmerge v5.5.0 ('Healer') built on Apr 24 2012 23:47:03
Библиотека кодирования : libebml v1.2.3 + libmatroska v1.3.0

Видео
Идентификатор : 1
Формат : AVC
Формат/Информация : Advanced Video Codec
Профиль формата : High@L4.1
Параметр CABAC формата : Да
Параметр ReFrames формата : 12 кадров
Идентификатор кодека : V_MPEG4/ISO/AVC
Продолжительность : 1 ч. 26 м.
Битрейт : 2824 Кбит/сек
Ширина : 1152 пикселя
Высота : 480 пикселей
Соотношение сторон : 2,40:1
Частота кадров : 23,976 кадра/сек
Цветовое пространство : YUV
Субдискретизация насыщенности : 4:2:0
Битовая глубина : 8 бит
Тип развёртки : Прогрессивная
Бит/(Пиксели*Кадры) : 0.213
Размер потока : 1,66 Гбайт (77%)
Заголовок : Никто не выжил
Библиотека кодирования : x264 core 119 r2106 07efeb4
Настройки программы : cabac=1 / ref=12 / deblock=1:-3:-3 / analyse=0x3:0x133 / me=umh / subme=11 / psy=1 / psy_rd=1.00:0.05 / mixed_ref=1 / me_range=64 / chroma_me=1 / trellis=2 / 8x8dct=1 / cqm=0 / deadzone=21,11 / fast_pskip=0 / chroma_qp_offset=-3 / threads=4 / sliced_threads=0 / nr=0 / decimate=1 / interlaced=0 / bluray_compat=0 / constrained_intra=0 / bframes=9 / b_pyramid=2 / b_adapt=2 / b_bias=0 / direct=3 / weightb=1 / open_gop=0 / weightp=2 / keyint=250 / keyint_min=23 / scenecut=40 / intra_refresh=0 / rc_lookahead=50 / rc=2pass / mbtree=1 / bitrate=2824 / ratetol=1.0 / qcomp=0.60 / qpmin=0 / qpmax=69 / qpstep=4 / cplxblur=20.0 / qblur=0.5 / ip_ratio=1.40 / aq=1:1.00
Язык : Russian
Default : Да
Forced : Нет

Аудио #1
Идентификатор : 2
Формат : AC-3
Формат/Информация : Audio Coding 3
Расширение режима : CM (complete main)
Параметр Endianness формата : Big
Идентификатор кодека : A_AC3
Продолжительность : 1 ч. 26 м.
Вид битрейта : Постоянный
Битрейт : 384 Кбит/сек
Каналы : 6 каналов
Расположение каналов : Front: L C R, Side: L R, LFE
Частота : 48,0 КГц
Битовая глубина : 16 бит
Метод сжатия : С потерями
Размер потока : 237 Мбайт (11%)
Заголовок : Dub
Язык : Russian
Default : Да
Forced : Нет

Аудио #2
Идентификатор : 3
Формат : AC-3
Формат/Информация : Audio Coding 3
Расширение режима : CM (complete main)
Параметр Endianness формата : Big
Идентификатор кодека : A_AC3
Продолжительность : 1 ч. 26 м.
Вид битрейта : Постоянный
Битрейт : 384 Кбит/сек
Каналы : 6 каналов
Расположение каналов : Front: L C R, Side: L R, LFE
Частота : 48,0 КГц
Битовая глубина : 16 бит
Метод сжатия : С потерями
Размер потока : 237 Мбайт (11%)
Заголовок : Original
Язык : English
Default : Нет
Forced : Нет

Текст #1
Идентификатор : 4
Формат : UTF-8
Идентификатор кодека : S_TEXT/UTF8
Идентификатор кодека/Информация : UTF-8 Plain Text
Язык : Russian
Default : Да
Forced : Нет

Текст #2
Идентификатор : 5
Формат : UTF-8
Идентификатор кодека : S_TEXT/UTF8
Идентификатор кодека/Информация : UTF-8 Plain Text
Язык : English
Default : Нет
Forced : Нет

Меню
00:00:00.000 : :Chapter 01
00:07:40.208 : :Chapter 02
00:11:02.500 : :Chapter 03
00:16:42.542 : :Chapter 04
00:23:51.792 : :Chapter 05
00:27:58.375 : :Chapter 06
00:34:12.292 : :Chapter 07
00:42:55.542 : :Chapter 08
00:52:08.458 : :Chapter 09
00:59:29.042 : :Chapter 10
01:09:03.625 : :Chapter 11
01:16:36.167 : :Chapter 12


picpicpic

Этот торрент недоступен для скачивания без регистрации, однако доступен по публичной magnet-ссылке (источники с публичных трекеров). Перед использованием ссылки прочтите, пожалуйста Пользовательское соглашение, а также как можно дольше оставайтесь на раздаче! Для того, чтобы скачать сам торрент-файл (который видит больше источников), а также для того, чтобы поблагодарить релизера, вам необходимо зарегистрироваться. Если регистрироваться лень - вы можете также попробовать скачать релиз по нашим партнерским ссылкам ниже.

[underverse.su].t29809.torrent
Трекер: Зарегистрирован   [ 05.08.2013 17:54 ]  

Статус: проверено (by Чертёнок at 05.08.2013 18:45)
Поблагодарили: 1 человек
Тип торрента: публичный - доступные источники с открытых трекеров: 
Размер: 2,17 GB (занимает 1/2 DVDR, для записи нужно 1 болванка DVDR/RW)
 
 
Похожие темы
Форум Тема Автор Торрент Отв. Посл. сооб.
Зарубежное кино [DVDRip, Low-Res HDRip, и т.д.] Никто не выжил / No One Lives (Рюхэй Китамура) [2012 г., ужасы, триллер, BDRip] Dub Чертёнок
147 | 5

0 | 1333

26

11.06.2013 12:05

Зарубежное кино [HDDVDRip / BDRip / WEB-DL / HDTV 1080/720р] Никто не выжил / No One Lives (Рюхэй Китамура) [2012 г., ужасы, триллер, BDRip 720p] Dub Чертёнок
7 | 1

0 | 443

12

11.06.2013 19:06

Зарубежное кино [HDDVDRip / BDRip / WEB-DL / HDTV 1080/720р] Никто не выжил / No One Lives (Рюхэй Китамура) [2012 г., Ужасы, Триллер, BDRip 720p] MVO (Rus) + VO (Rus, den904) + Original (Eng) + Subs (Rus, Eng) Ведьмочка
3 | 0

0 | 788

7

16.07.2014 16:22


Яндекс.Метрика powered by Sphinx


В Н И М А Н И Е
Сайт не распространяет и не хранит электронные версии произведений, а лишь бесплатно и без коммерческой выгоды (не требуя взамен платы,
SMS и т.д.) предоставляет доступ к создаваемому пользователями каталогу ссылок на торрент-файлы, которые содержат только списки хеш-сумм.
Убедительная просьба с жалобами обращаться напрямую к пользователю, разместившему торрент файл.

Вверх