Loading...
Error

Транс / Trance (Дэнни Бойл / Danny Boyle) [2013, Великобритания, Франция, триллер, драма, криминал, детектив, BDRip] Dub + Original Eng + Subs

Статистика раздачи
Размер:  2,18 GB   |    Зарегистрирован:  3 года 3 месяца   |    Скачан:  33 раза

Полного источника не было: 5 дней

Сидов:  0  |  0 KB/s  ]   Личеров:  0  |  0 KB/s  ]

* - сиды/пиры с внешних источников

   
 
Автор Сообщение

Garnett Пол:Муж

05-Авг-2013 17:50

Транс / Trance
«В подсознании. Вне закона»

Страна: Великобритания, Франция / Cloud Eight Films, Decibel Films, Film4
Жанр: триллер, драма, криминал, детектив
Год выпуска: 2013
Продолжительность: 01:41:19

Перевод: Профессиональный (дублированный) лицензия iTunes
Cубтитры: Rus (full) + Eng full (iTunes+BD+SDH+SDH-Colored) внешние
Оригинальная аудиодорожка: английский

Режиссёр: Дэнни Бойл / Danny Boyle

В ролях: Джеймс МакЭвой, Венсан Кассель, Розарио Доусон, Дэнни Сапани, Мэттью Кросс, Вахаб Ахмед Шейх, Марк Полтимор, Таппенс Мидлтон, Саймон Кунц, Майкл Шэйффер.

Описание: Аукционер Саймон не в силах противостоять искушению — вступает в сговор с бандой грабителей и организует похищение уникального лота стоимостью в миллионы долларов. Однако налет оканчивается не совсем так, как он предполагал вначале. Аукционера оглушают ударом тупого предмета по голове, в результате которого он теряет какие бы то ни было воспоминания о том, что произошло.
Разумеется, он также забывает, куда спрятал ценную картину. Пытками добиться ответа от ничего не понимающего Саймона не удается. Тогда главарь банды решает нанять психотерапевта, чтобы она смогла выудить ценную информацию из поврежденного мозга заложника. По мере того, как девушка пробивается сквозь нейронную защиту, ставки растут как на дрожжах. Границы между страстью и жестокостью, реальностью и вымыслом тускнеют и вовсе готовы испариться. В конечном итоге становится не ясно — кто же у кого в заложниках?

Сэмпл: http://multi-up.com/890994
Качество видео: BDRip [Trance.2013.1080p.Bluray.Remux.Rus.Eng.Subs.mkv]
Формат видео: AVI

Видео: XviD build 65, 720x304 (2.35:1), 23.976 fps, ~2292 kbps avg, 0.437 bit/pixel
Аудио 1: 48 kHz, AC3 Dolby Digital, 3/2 (L,C,R,l,r) + LFE ch, ~384 kbps avg (RUS)
Аудио 2: 48 kHz, AC3 Dolby Digital, 3/2 (L,C,R,l,r) + LFE ch, ~384 kbps avg (ENG)
Формат субтитров: softsub (SRT)



General
Complete name : D\Trance.2013.DUAL.BDRip.2,18Gb.XviD.AC3\Trance.2013.DUAL.BDRip.2,18Gb.XviD.AC3.avi
Format : AVI
Format/Info : Audio Video Interleave
Format profile : OpenDML
File size : 2.18 GiB
Duration : 1h 41mn
Overall bit rate : 3 078 Kbps
Writing application : VirtualDubModRus 1.5.10.2 (build 2542/release)
Writing library : VirtualDubMod build 2542/release

Video
ID : 0
Format : MPEG-4 Visual
Format profile : Advanced Simple@L5
Format settings, BVOP : 1
Format settings, QPel : No
Format settings, GMC : No warppoints
Format settings, Matrix : Custom
Codec ID : XVID
Codec ID/Hint : XviD
Duration : 1h 41mn
Bit rate : 2 292 Kbps
Width : 720 pixels
Height : 304 pixels
Display aspect ratio : 2.35:1
Frame rate : 23.976 fps
Color space : YUV
Chroma subsampling : 4:2:0
Bit depth : 8 bits
Scan type : Progressive
Compression mode : Lossy
Bits/(Pixel*Frame) : 0.437
Stream size : 1.62 GiB (74%)
Writing library : XviD 65

Audio #1
ID : 1
Format : AC-3
Format/Info : Audio Coding 3
Mode extension : CM (complete main)
Format settings, Endianness : Big
Codec ID : 2000
Duration : 1h 41mn
Bit rate mode : Constant
Bit rate : 384 Kbps
Channel(s) : 6 channels
Channel positions : Front: L C R, Side: L R, LFE
Sampling rate : 48.0 KHz
Bit depth : 16 bits
Compression mode : Lossy
Stream size : 278 MiB (12%)
Alignment : Split accross interleaves
Interleave, duration : 42 ms (1.00 video frame)
Interleave, preload duration : 500 ms
Title : RUS

Audio #2
ID : 2
Format : AC-3
Format/Info : Audio Coding 3
Mode extension : CM (complete main)
Format settings, Endianness : Big
Codec ID : 2000
Duration : 1h 41mn
Bit rate mode : Constant
Bit rate : 384 Kbps
Channel(s) : 6 channels
Channel positions : Front: L C R, Side: L R, LFE
Sampling rate : 48.0 KHz
Bit depth : 16 bits
Compression mode : Lossy
Stream size : 278 MiB (12%)
Alignment : Split accross interleaves
Interleave, duration : 42 ms (1.00 video frame)
Interleave, preload duration : 500 ms
Title : ENG


picpicpic

Этот торрент недоступен для скачивания без регистрации, однако доступен по публичной magnet-ссылке (источники с публичных трекеров). Перед использованием ссылки прочтите, пожалуйста Пользовательское соглашение, а также как можно дольше оставайтесь на раздаче! Для того, чтобы скачать сам торрент-файл (который видит больше источников), а также для того, чтобы поблагодарить релизера, вам необходимо зарегистрироваться. Если регистрироваться лень - вы можете также попробовать скачать релиз по нашим партнерским ссылкам ниже.

[underverse.su].t29808.torrent
Трекер: Зарегистрирован   [ 05.08.2013 17:50 ]  

Статус: проверено (by Чертёнок at 05.08.2013 18:44)
Поблагодарили: 2 человека
Тип торрента: публичный - доступные источники с открытых трекеров: 
Размер: 2,18 GB (занимает 1/2 DVDR, для записи нужно 1 болванка DVDR/RW)
 
 
Похожие темы
Форум Тема Автор Торрент Отв. Посл. сооб.
Зарубежное кино [DVDRip, Low-Res HDRip, и т.д.] Транс / Trance (Дэнни Бойл / Danny Boyle) [2012 г., триллер, драма, криминал, детектив, BDRip-AVC] Dub + Original 90ytr90
2 | 0

0 | 990

42

08.08.2013 17:31

Зарубежное кино [DVDRip, Low-Res HDRip, и т.д.] Транс / Trance (Дэнни Бойл / Danny Boyle) [2013 г., триллер, драма, криминал, детектив, HDRip] Dub 90ytr90
8 | 0

0 | 1206

25

09.09.2013 09:07

T Зарубежное кино [HDDVDRip / BDRip / WEB-DL / HDTV 1080/720р] Транс / Trance (Дэнни Бойл) [2013 г., триллер, драма, криминал, BDRip 720p] Dub (чистый звук) + Original Чертёнок
0 | 0

0 | 570

47

13.07.2013 04:54

Зарубежное кино [HDDVDRip / BDRip / WEB-DL / HDTV 1080/720р] Транс / Trance (Дэнни Бойл) [2013 г., триллер, драма, криминал, детектив, BDRip 10800p ] Dub ФОКЕР
1 | 0

2 | 795

9

03.08.2013 12:57


Яндекс.Метрика powered by Sphinx


В Н И М А Н И Е
Сайт не распространяет и не хранит электронные версии произведений, а лишь бесплатно и без коммерческой выгоды (не требуя взамен платы,
SMS и т.д.) предоставляет доступ к создаваемому пользователями каталогу ссылок на торрент-файлы, которые содержат только списки хеш-сумм.
Убедительная просьба с жалобами обращаться напрямую к пользователю, разместившему торрент файл.

Вверх