Loading...
Error

Обливион / Oblivion (Джозеф Косински / Joseph Kosinski) [2013, США, Фантастика, боевик, триллер, приключения, мелодрама, BDRip] Dub

Статистика раздачи
Размер:  749 MB   |    Зарегистрирован:  3 года 4 месяца   |    Скачан:  15 раз

Полного источника не было: 1 год

Сидов:  0  |  0 KB/s  ]   Личеров:  0  |  0 KB/s  ]

* - сиды/пиры с внешних источников

   
 
Автор Сообщение

Garnett Пол:Муж

05-Авг-2013 17:40

Обливион / Oblivion

Год выпуска: 2013
Выпущено: США / Universal Pictures, Chernin Entertainment, Ironhead Studios
Жанр: фантастика, боевик, триллер, приключения, мелодрама
Продолжительность: 02:04:42
Перевод: Профессиональный (полное дублирование) CEE
Субтитры: нет
Режиссер:
Джозеф Косински / Joseph Kosinski
В ролях:
Том Круз (Jack), Ольга Куриленко (Julia), Андреа Райзборо (Victoria), Морган Фриман (Beech), Николай Костер-Вальдау (Sykes), Мелисса Лео (Sally), Зои Белл (Kara), Эбигейл Лоу (Julia's Child), Изабель Лоу (Julia's Child), Дэвид Мэдисон (Grow Hall Survivor), Джон Л. Армихо (NASA Ground Control)
Описание:
Можно ли скучать по месту, в котором никогда не был, мечтать о девушке, которую никогда не видел? Добро пожаловать в будущее! Мы больше не можем называть Землю своим домом. Мы выиграли войну, но не смогли сохранить планету…

Качество: BDRip [Oblivion 2013 1080p BluRay AVC DTS HD MA 7 1 PublicHD]
Формат: AVI

Видео: 656x272 (2.41:1), 23.976 fps, XviD build 73 ~701 kbps avg, 0.16 bit/pixel
Аудио: 48 kHz, MPEG Layer 3, 2 ch, ~128.00 kbps avg



picpicpic


Код:

General
Complete name                            : D:\Oblivion_2013_BDRip_745_by_Dalemake.avi
Format                                   : AVI
Format/Info                              : Audio Video Interleave
File size                                : 749 MiB
Duration                                 : 2h 4mn
Overall bit rate                         : 839 Kbps
Writing application                      : VirtualDubMod 1.5.10.3 | www.virtualdub-fr.org || (build 2550/release)
Writing library                          : VirtualDubMod build 2550/release

Video
ID                                       : 0
Format                                   : MPEG-4 Visual
Format profile                           : Advanced Simple@L5
Format settings, BVOP                    : 1
Format settings, QPel                    : No
Format settings, GMC                     : No warppoints
Format settings, Matrix                  : Custom
Codec ID                                 : XVID
Codec ID/Hint                            : XviD
Duration                                 : 2h 4mn
Bit rate                                 : 702 Kbps
Width                                    : 656 pixels
Height                                   : 272 pixels
Display aspect ratio                     : 2.40:1
Frame rate                               : 23.976 fps
Color space                              : YUV
Chroma subsampling                       : 4:2:0
Bit depth                                : 8 bits
Scan type                                : Progressive
Compression mode                         : Lossy
Bits/(Pixel*Frame)                       : 0.164
Stream size                              : 626 MiB (84%)
Writing library                          : XviD 73

Audio
ID                                       : 1
Format                                   : MPEG Audio
Format version                           : Version 1
Format profile                           : Layer 3
Codec ID                                 : 55
Codec ID/Hint                            : MP3
Duration                                 : 2h 4mn
Bit rate mode                            : Constant
Bit rate                                 : 128 Kbps
Channel(s)                               : 2 channels
Sampling rate                            : 48.0 KHz
Compression mode                         : Lossy
Stream size                              : 114 MiB (15%)
Alignment                                : Aligned on interleaves
Interleave, duration                     : 42 ms (1.00 video frame)
Interleave, preload duration             : 504 ms
Writing library                          : LAME3.99r
Encoding settings                        : -m s -V 4 -q 2 -lowpass 17 -b 128

Этот торрент недоступен для скачивания без регистрации, однако доступен по публичной magnet-ссылке (источники с публичных трекеров). Перед использованием ссылки прочтите, пожалуйста Пользовательское соглашение, а также как можно дольше оставайтесь на раздаче! Для того, чтобы скачать сам торрент-файл (который видит больше источников), а также для того, чтобы поблагодарить релизера, вам необходимо зарегистрироваться. Если регистрироваться лень - вы можете также попробовать скачать релиз по нашим партнерским ссылкам ниже.

[underverse.su].t29807.torrent
Трекер: Зарегистрирован   [ 05.08.2013 17:41 ]  

Статус: проверено (by Чертёнок at 05.08.2013 18:43)
Поблагодарили: 1 человек
Тип торрента: публичный - доступные источники с открытых трекеров: 
Размер: 749 MB (занимает 0,17 DVDR, для записи нужно 1 болванка DVDR/RW)
 
 
Похожие темы
Форум Тема Автор Торрент Отв. Посл. сооб.
Зарубежное кино [DVDRip, Low-Res HDRip, и т.д.] Обливион / Oblivion (Джозеф Косински) [2013 г., фантастика, боевик, триллер, приключения, HDTVRip] VO + Original Чертёнок
0 | 0

0 | 1123

54

21.07.2013 16:44

Зарубежное кино [DVDRip, Low-Res HDRip, и т.д.] Обливион / Oblivion (Джозеф Косински) [2013 г., фантастика, боевик, триллер, приключения, антиутопия, HDTVRip] VO (den904) 90ytr90
2 | 0

0 | 884

16

22.07.2013 18:18

Зарубежное кино [DVDRip, Low-Res HDRip, и т.д.] Обливион / Oblivion (Джозеф Косински / Joseph Kosinski) [2013 г., фантастика, боевик, триллер, приключения, мелодрама, HDRip] DuB [Лицензия] gkrasnyi
9 | 0

1 | 1324

105

05.08.2013 07:50

Зарубежное кино [DVDRip, Low-Res HDRip, и т.д.] Обливион / Oblivion (Джозеф Косински) [2013 г., фантастика, боевик, триллер, приключения, мелодрама, BDRip] Dub 90ytr90
8 | 0

0 | 1966

185

08.08.2013 15:00

Зарубежное кино [DVDRip, Low-Res HDRip, и т.д.] Обливион / Oblivion (Джозеф Косински / Joseph Kosinski) [2013 г., фантастика, боевик, триллер, приключения, мелодрама, HDTVRip] 2xAVO (Володарский, Сербин) 90ytr90
18 | 0

0 | 399

10

11.02.2015 19:19

Зарубежное кино [HDDVDRip / BDRip / WEB-DL / HDTV 1080/720р] Обливион / Oblivion (Джозеф Косински) [2013 г., фантастика, боевик, триллер, приключения, антиутопия, BDRip 720p] VO (den904) + Original 90ytr90
4 | 0

0 | 652

9

23.07.2013 14:31

Зарубежное кино [HDDVDRip / BDRip / WEB-DL / HDTV 1080/720р] Обливион / Oblivion (Джозеф Косински / Joseph Kosinski) [2013 г., фантастика, боевик, триллер, приключения, мелодрама, BDRip 720p] Dub + Original 90ytr90
4 | 0

0 | 1044

39

05.08.2013 10:03

Зарубежное кино [HDDVDRip / BDRip / WEB-DL / HDTV 1080/720р] Обливион / Oblivion (Джозеф Косински / Joseph Kosinski) [2013 г., фантастика, боевик, триллер, BDRip 1080p] Dub + AVO + Original garry
129 | 2

0 | 1858

11

17.11.2013 21:34

Зарубежное кино [HDDVDRip / BDRip / WEB-DL / HDTV 1080/720р] Обливион / Oblivion (Джозеф Косински / Joseph Kosinski) [2013 г., фантастика, боевик, триллер, BDRip 1080p] Dub + Original garry
1 | 0

0 | 1898

27

04.12.2013 11:40

Видео для смартфонов Обливион / Oblivion (Джозеф Косински) [2013 г., фантастика, боевик, триллер, приключения, мелодрама, HDRip] DuB | КПК | Лицензия Чертёнок
6 | 1

0 | 1114

12

07.08.2013 06:30


Яндекс.Метрика powered by Sphinx


В Н И М А Н И Е
Сайт не распространяет и не хранит электронные версии произведений, а лишь бесплатно и без коммерческой выгоды (не требуя взамен платы,
SMS и т.д.) предоставляет доступ к создаваемому пользователями каталогу ссылок на торрент-файлы, которые содержат только списки хеш-сумм.
Убедительная просьба с жалобами обращаться напрямую к пользователю, разместившему торрент файл.

Вверх