Loading...
Error

Поцелуй у озера / Kiss at Pine Lake (Майкл Скотт / Michael Scott) [2012, Канада, мелодрама, DVDRip] DVO (Дисней)

Статистика раздачи
Размер:  746 MB   |    Зарегистрирован:  3 года 4 месяца   |    Скачан:  14 раз

Полного источника не было: 13 дней

Сидов:  0  |  0 KB/s  ]   Личеров:  0  |  0 KB/s  ]

* - сиды/пиры с внешних источников

   
 
Автор Сообщение

Garnett Пол:Муж

03-Авг-2013 16:39

Поцелуй у озера / Kiss at Pine Lake


Страна: Канада
Студия: Front Street Pictures, Pine Road Productions
Жанр: мелодрама
Год выпуска: 2012
Продолжительность: 01:24:58
Перевод: Профессиональный (двухголосый закадровый) Дисней
Cубтитры: нет
Оригинальная аудиодорожка: нет

Режиссер: Майкл Скотт / Michael Scott
В ролях: Барри Уотсон, Миа Киршнер, Мэтт Финокио, Виктория Байдуэлл, Бреннан Эллиотт, Билл Энгвалл, Чед Кровчук, Хротгар Мэтьюз, Габриэлль Роуз, Диана Бэнг

Описание: Прошло пятнадцать лет с того момента, когда судьба впервые свела Зоуи и Люка в школьном лагере у горного озера. Тогда подростки так и не осмелились признаться друг другу в любви. Но сейчас у героев появился шанс исправить ошибку прошлого. Люк, ставший успешным бизнесменом, теперь полноправный владелец лагеря. А Зоуи, работающая на крупную компанию, планирует выкупить заповедные земли под строительство коттеджей...

Доп. информация: Запись звука и синхронизация: vedigo
Качество видео: DVDRip
Формат видео: AVI
Видео: XviD 624x352 (16:9) 25.0fps Bit rate 1025Kbps b/p 0.187
Аудио: AC3 48.0KHz 2ch 192 Kbps


General
Complete name : E:\torrent\Поцелуй у озера.avi
Format : AVI
Format/Info : Audio Video Interleave
File size : 746 MiB
Duration : 1h 24mn
Overall bit rate : 1 227 Kbps
Writing application : VirtualDubMod 1.5.1.1a (build 1155/release)
Writing library : VirtualDub build 32842/release

Video
ID : 0
Format : MPEG-4 Visual
Format profile : Advanced Simple@L5
Format settings, BVOP : Yes
Format settings, QPel : No
Format settings, GMC : No warppoints
Format settings, Matrix : Default (H.263)
Codec ID : XVID
Codec ID/Hint : XviD
Duration : 1h 24mn
Bit rate : 1 025 Kbps
Width : 624 pixels
Height : 352 pixels
Display aspect ratio : 16:9
Frame rate : 25.000 fps
Color space : YUV
Chroma subsampling : 4:2:0
Bit depth : 8 bits
Scan type : Progressive
Bits/(Pixel*Frame) : 0.187
Stream size : 623 MiB (84%)
Writing library : XviD 1.2.1 (UTC 2008-12-04)

Audio
ID : 1
Format : AC-3
Format/Info : Audio Coding 3
Mode extension : CM (complete main)
Codec ID : 2000
Duration : 1h 24mn
Bit rate mode : Constant
Bit rate : 192 Kbps
Channel(s) : 2 channels
Channel positions : Front: L R
Sampling rate : 48.0 KHz
Bit depth : 16 bits
Stream size : 117 MiB (16%)
Alignment : Aligned on interleaves
Interleave, duration : 40 ms (1.00 video frame)
Interleave, preload duration : 512 ms
picpicpic

Этот торрент недоступен для скачивания без регистрации, однако доступен по публичной magnet-ссылке (источники с публичных трекеров). Перед использованием ссылки прочтите, пожалуйста Пользовательское соглашение, а также как можно дольше оставайтесь на раздаче! Для того, чтобы скачать сам торрент-файл (который видит больше источников), а также для того, чтобы поблагодарить релизера, вам необходимо зарегистрироваться. Если регистрироваться лень - вы можете также попробовать скачать релиз по нашим партнерским ссылкам ниже.

[underverse.su].t29768.torrent
Трекер: Зарегистрирован   [ 03.08.2013 16:39 ]  

Статус: проверено (by Чертёнок at 03.08.2013 16:41)
Поблагодарили: 1 человек
Тип торрента: публичный - доступные источники с открытых трекеров: 
Размер: 746 MB (занимает 0,17 DVDR, для записи нужно 1 болванка DVDR/RW)
 
 

Яндекс.Метрика powered by Sphinx


В Н И М А Н И Е
Сайт не распространяет и не хранит электронные версии произведений, а лишь бесплатно и без коммерческой выгоды (не требуя взамен платы,
SMS и т.д.) предоставляет доступ к создаваемому пользователями каталогу ссылок на торрент-файлы, которые содержат только списки хеш-сумм.
Убедительная просьба с жалобами обращаться напрямую к пользователю, разместившему торрент файл.

Вверх