Loading...
Error

Эта веселая планета (Юрий Цветков, Юрий Сааков) [1973 г., мюзикл, фантастика, комедия, DVDRip]

Статистика раздачи
Размер:  1,46 GB   |    Зарегистрирован:  3 года 4 месяца   |    Скачан:  16 раз

Полного источника не было: 10 месяцев

Сидов:  0  |  0 KB/s  ]   Личеров:  0  |  0 KB/s  ]

* - сиды/пиры с внешних источников

   
 
Автор Сообщение

Чертёнок Пол:Муж

01-Авг-2013 10:21

Эта веселая планета
Страна: СССР
Производство: Мосфильм
Жанр: мюзикл, фантастика, комедия
Год выпуска: 1973
Продолжительность: 01:31:04

Перевод: не требуется
Оригинальная аудиодорожка: русский
Cубтитры: нет

Режиссер: Юрий Цветков, Юрий Сааков

В ролях:
Виктор Сергачев, Екатерина Васильева, Леонид Куравлев, Александр Вокач, Лариса Барабанова, Савелий Крамаров, Наталья Крачковская, Владимир Носик, Вячеслав Гостинский, Игорь Кашинцев, Михаил Езепов, Валентин Голубенко, Светлана Данильченко, Вадим Завьялов, Геннадий Юхтин, Александр Лебедев, Елена Максимова, Виктор Маркин, Георгиос Совчис, Андрей Карташов, Людмила Семеняка, Владимир Тихонов, Валерий и Геннадий Сазоновы, вартисты музыкальных театров, эстрады и цирка...
Исполнители песен: Татьяна Сашко ("Белый танец"), Янина Бразайтене ("Сердце любить должно"), Валерий Ободзинский ("Вечная весна", "Листопад"), Леонид Куравлев и Виктор Сергачев ("На самой совершенной из планет..."), Лев Лещенко ("Песня о вечном движении"), ансамбль "Добры молодцы" ("Я еду к морю", "Галина"), ансамбль "Веселые ребята" ("Это - Москва", "Скорый поезд", "У той горы"), ансамбль "Песняры" ("Наши любимые")

Описание:
Прилетевшие на Землю инопланетяне попадают на встречу Нового года в обычный Дворец культуры. Столкнувшись со множеством загадок, они постепенно приходят к пониманию того, что земная жизнь без шутки и смеха, без искусства и любви невозможна…


Исходник: DVD5 R5
Тип релиза: DVDRip-AVC
Контейнер: MKV
Формат: AVI
Видео: 720->768x556 (1,381:1), 25 fps, H264 ~ 1838 kbps
Аудио: 48 kHz, Dolby AC3 5.1, 448 kbps
Общее
Полное имя : Jeta.veselaya.planeta.1973.DVDRip-AVC_[Youtracker]_by_AVP Studio.mkv
Формат : Matroska
Версия формата : Version 2
Размер файла : 1,46 Гбайт
Продолжительность : 1 ч. 31 м.
Общий поток : 2287 Кбит/сек
Дата кодирования : UTC 2013-08-01 03:47:43
Программа кодирования : mkvmerge v5.0.1 ('Es ist Sommer') built on Nov 6 2011 16:23:40
Библиотека кодирования : libebml v1.2.2 + libmatroska v1.3.0

Видео
Идентификатор : 1
Формат : AVC
Формат/Информация : Advanced Video Codec
Профиль формата : High@L4.1
Параметр CABAC формата : Да
Параметр ReFrames формата : 11 кадров
Идентификатор кодека : V_MPEG4/ISO/AVC
Продолжительность : 1 ч. 31 м.
Битрейт : 1838 Кбит/сек
Ширина : 720 пикселей
Высота : 556 пикселей
Соотношение сторон : 1,381
Частота кадров : 25,000 кадров/сек
Цветовое пространство : YUV
Субдискретизация насыщенности : 4:2:0
Битовая глубина : 8 бит
Тип развёртки : Прогрессивная
Бит/(Пиксели*Кадры) : 0.184
Размер потока : 1,14 Гбайт (78%)
Библиотека кодирования : x264 core 130 r2273 b3065e6
Настройки программы : cabac=1 / ref=11 / deblock=1:-2:-1 / analyse=0x3:0x113 / me=umh / subme=9 / psy=1 / psy_rd=1.00:0.15 / mixed_ref=1 / me_range=32 / chroma_me=1 / trellis=1 / 8x8dct=1 / cqm=0 / deadzone=21,11 / fast_pskip=0 / chroma_qp_offset=-3 / threads=3 / lookahead_threads=1 / sliced_threads=0 / nr=0 / decimate=0 / interlaced=0 / bluray_compat=0 / constrained_intra=0 / bframes=8 / b_pyramid=2 / b_adapt=2 / b_bias=0 / direct=3 / weightb=1 / open_gop=0 / weightp=2 / keyint=250 / keyint_min=25 / scenecut=40 / intra_refresh=0 / rc_lookahead=60 / rc=2pass / mbtree=1 / bitrate=1838 / ratetol=1.0 / qcomp=0.60 / qpmin=0 / qpmax=69 / qpstep=4 / cplxblur=20.0 / qblur=0.5 / ip_ratio=1.40 / aq=1:1.00
Default : Да
Forced : Нет

Аудио
Идентификатор : 2
Формат : AC-3
Формат/Информация : Audio Coding 3
Расширение режима : CM (complete main)
Идентификатор кодека : A_AC3
Продолжительность : 1 ч. 31 м.
Вид битрейта : Постоянный
Битрейт : 448 Кбит/сек
Каналы : 6 каналов
Расположение каналов : Front: L C R, Side: L R, LFE
Частота : 48,0 КГц
Битовая глубина : 16 бит
Метод сжатия : С потерями
Задержка видео : 341 мс.
Размер потока : 292 Мбайт (20%)
Default : Да
Forced : Нет
picpicpicpic
Для увеличения картинки щелкните мышкой по превью

Этот торрент недоступен для скачивания без регистрации, однако доступен по публичной magnet-ссылке (источники с публичных трекеров). Перед использованием ссылки прочтите, пожалуйста Пользовательское соглашение, а также как можно дольше оставайтесь на раздаче! Для того, чтобы скачать сам торрент-файл (который видит больше источников), а также для того, чтобы поблагодарить релизера, вам необходимо зарегистрироваться. Если регистрироваться лень - вы можете также попробовать скачать релиз по нашим партнерским ссылкам ниже.

[underverse.su].t29707.torrent
Трекер: Зарегистрирован   [ 01.08.2013 10:21 ]  

Статус: проверено (by Чертёнок at 01.08.2013 10:24)
Поблагодарили: 1 человек
Тип торрента: публичный - доступные источники с открытых трекеров: 
Размер: 1,46 GB (занимает 1/3 DVDR, для записи нужно 1 болванка DVDR/RW)
 
 

Яндекс.Метрика powered by Sphinx


В Н И М А Н И Е
Сайт не распространяет и не хранит электронные версии произведений, а лишь бесплатно и без коммерческой выгоды (не требуя взамен платы,
SMS и т.д.) предоставляет доступ к создаваемому пользователями каталогу ссылок на торрент-файлы, которые содержат только списки хеш-сумм.
Убедительная просьба с жалобами обращаться напрямую к пользователю, разместившему торрент файл.

Вверх