Loading...
Error

Бой без правил / Fighting (Дито Монтиель / Dito Montiel) [2009 г., боевик, драма, спорт, BDRip-AVC] Dub + Original + Sub (Rus,Eng)

Статистика раздачи
Размер:  2,18 GB   |    Зарегистрирован:  3 года 4 месяца   |    Скачан:  15 раз

Полного источника не было: 2 года 1 месяц

Сидов:  0  |  0 KB/s  ]   Личеров:  0  |  0 KB/s  ]

* - сиды/пиры с внешних источников

   
 
Автор Сообщение

Паукан Пол:Муж

31-Июл-2013 11:52

Бой без правил / Fighting


Год выпуска: 2009
Производство: США / Rogue Pictures, Relativity Media, Misher Films
Жанр: Боевик, драма, спорт
Продолжительность: 01:47:00
Перевод: Профессиональный (полное дублирование)
Субтитры: Русские, английские |отключаемые|
Режиссер: Дито Монтиель / Dito Montiel

В ролях: Ченнинг Татум, Терренс Говард, Зулай Хенао, Флако Навайа, Куинтон Аарон, Анджелина Очелло, Дэвид Барросо, Аарон Бер, Игорь Черкасский, Клем Чунг, Кэрол Коммиссьонг, Грег Коннолли, Энтони ДеСандо, Джефф Гроссман, Луис Гузман, Томас М. Хэйген, Джастин Роджерс Холл, АрДжей Коннер, Ивэн Льюис, Майкл Ривера, Стивен Рубинчик, Берто Колон, Роджер Гуэнвер Смит, Питер Энтони Тамбакис, Пол Торнтон, Пол Васкес, Сонни Веллоцци, Брайан Дж. Уайт, Блейк Янг-Фонтейн, Джонни С., Райан Кертис, Узиманн, Джанет Миранда, Данте Неро

О фильме: Шон МакАртур приезжает в Нью-Йорк из провинции без гроша за душой. Он едва зарабатывает на жизнь продажей дешевых подделок. Ему улыбается удача, когда он встречает завзятого афериста Харви Бордена. Харви становится менеджером Шона и знакомит его с миром уличных боев. Буквально за ночь Шон становится звездой, с легкостью отправляя в нокаут профессиональных боксеров и знатоков боевых искусств. Впереди его ждет самая жестокая битва за всю его жизнь…
Сэмпл
Качество: BDRip-AVC [ исходник - BDRemux]
Формат: MKV
Видео: х.264, 960x528 (16:9), 23,976 fps, 1818 Кbps, 0.150 bit/pixel
Аудио#1: 48 kHz, AC3 Dolby Digital, 3/2 (L,C,R,l,r) + LFE ch, 448.00 kbps | RUS
Аудио#2: 48 kHz, AC3 Dolby Digital, 3/2 (L,C,R,l,r) + LFE ch, 448.00 kbps | ENG

Релиз от: HELLYWOOD
Автор рипа: potroks

Общее
Уникальный идентификатор : 178453623425846701288016051087251181362 (0x8640EAEEA6A33413AC1F349ADC7D8F32)
Полное имя : Boj.Bez.Pravil.2009.DUAL.BDRip.x264.-HELLYWOOD.mkv
Формат : Matroska
Версия формата : Version 4 / Version 2
Размер файла : 2,18 Гбайт
Продолжительность : 1 ч. 52 м.
Общий поток : 2769 Кбит/сек
Название фильма : HELLYWOOD
Дата кодирования : UTC 2013-07-30 07:22:14
Программа кодирования : mkvmerge v5.9.0 ('On The Loose') built on Dec 15 2012 16:39:58
Библиотека кодирования : libebml v1.3.0 + libmatroska v1.4.0

Видео
Идентификатор : 1
Формат : AVC
Формат/Информация : Advanced Video Codec
Профиль формата : High@L4.1
Параметр CABAC формата : Да
Параметр ReFrames формата : 9 кадров
Идентификатор кодека : V_MPEG4/ISO/AVC
Продолжительность : 1 ч. 52 м.
Битрейт : 1818 Кбит/сек
Номинальный битрейт : 2017 Кбит/сек
Ширина : 960 пикселей
Высота : 528 пикселей
Соотношение сторон : 16:9
Режим частоты кадров : Постоянный
Частота кадров : 23,976 кадра/сек
Цветовое пространство : YUV
Субдискретизация насыщенности : 4:2:0
Битовая глубина : 8 бит
Тип развёртки : Прогрессивная
Бит/(Пиксели*Кадры) : 0.150
Размер потока : 1,43 Гбайт (66%)
Заголовок : Fighting
Библиотека кодирования : x264 core 130 r2273 b3065e6
Настройки программы : cabac=1 / ref=9 / deblock=1:-3:-2 / analyse=0x3:0x133 / me=umh / subme=11 / psy=1 / psy_rd=1.01:0.00 / mixed_ref=1 / me_range=48 / chroma_me=1 / trellis=2 / 8x8dct=1 / cqm=0 / deadzone=21,11 / fast_pskip=0 / chroma_qp_offset=-2 / threads=9 / lookahead_threads=2 / sliced_threads=0 / nr=0 / decimate=1 / interlaced=0 / bluray_compat=0 / constrained_intra=0 / bframes=10 / b_pyramid=2 / b_adapt=2 / b_bias=0 / direct=3 / weightb=1 / open_gop=0 / weightp=2 / keyint=250 / keyint_min=23 / scenecut=40 / intra_refresh=0 / rc_lookahead=150 / rc=2pass / mbtree=1 / bitrate=2017 / ratetol=1.0 / qcomp=0.70 / qpmin=0 / qpmax=69 / qpstep=4 / cplxblur=20.0 / qblur=0.5 / vbv_maxrate=20000 / vbv_bufsize=20000 / nal_hrd=none / ip_ratio=1.35 / aq=1:0.80
Язык : English
Default : Да
Forced : Нет

Аудио #1
Идентификатор : 2
Формат : AC-3
Формат/Информация : Audio Coding 3
Расширение режима : CM (complete main)
Параметр Endianness формата : Big
Идентификатор кодека : A_AC3
Продолжительность : 1 ч. 52 м.
Вид битрейта : Постоянный
Битрейт : 448 Кбит/сек
Каналы : 6 каналов
Расположение каналов : Front: L C R, Side: L R, LFE
Частота : 48,0 КГц
Битовая глубина : 16 бит
Метод сжатия : С потерями
Размер потока : 362 Мбайт (16%)
Заголовок : Dub | DD 5.1 @ 448 kbps
Язык : Russian
Default : Да
Forced : Да

Аудио #2
Идентификатор : 3
Формат : AC-3
Формат/Информация : Audio Coding 3
Расширение режима : CM (complete main)
Параметр Endianness формата : Big
Идентификатор кодека : A_AC3
Продолжительность : 1 ч. 52 м.
Вид битрейта : Постоянный
Битрейт : 448 Кбит/сек
Каналы : 6 каналов
Расположение каналов : Front: L C R, Side: L R, LFE
Частота : 48,0 КГц
Битовая глубина : 16 бит
Метод сжатия : С потерями
Размер потока : 362 Мбайт (16%)
Заголовок : Original | DD 5.1 @ 448 kbps
Язык : English
Default : Нет
Forced : Нет

Текст #1
Идентификатор : 4
Формат : UTF-8
Идентификатор кодека : S_TEXT/UTF8
Идентификатор кодека/Информация : UTF-8 Plain Text
Язык : English
Default : Нет
Forced : Нет

Текст #2
Идентификатор : 5
Формат : UTF-8
Идентификатор кодека : S_TEXT/UTF8
Идентификатор кодека/Информация : UTF-8 Plain Text
Язык : Russian
Default : Нет
Forced : Нет
x264 [info]: frame I:1113 Avg QP:17.15 size: 72013
x264 [info]: frame P:37233 Avg QP:20.57 size: 20640
x264 [info]: frame B:116044 Avg QP:22.70 size: 6674
x264 [info]: consecutive B-frames: 3.1% 4.8% 8.9% 27.3% 14.0% 35.7% 2.6% 1.9% 0.5% 0.7% 0.4%
x264 [info]: mb I I16..4: 9.4% 70.7% 19.8%
x264 [info]: mb P I16..4: 0.7% 6.6% 1.0% P16..4: 32.6% 38.5% 12.4% 1.7% 0.2% skip: 6.3%
x264 [info]: mb B I16..4: 0.0% 0.6% 0.1% B16..8: 39.9% 19.5% 2.7% direct: 3.7% skip:33.5% L0:42.8% L1:47.6% BI: 9.7%
x264 [info]: 8x8 transform intra:78.3% inter:64.8%
x264 [info]: direct mvs spatial:98.0% temporal:2.0%
x264 [info]: coded y,uvDC,uvAC intra: 87.7% 76.9% 43.9% inter: 22.6% 13.9% 1.3%
x264 [info]: i16 v,h,dc,p: 21% 12% 7% 60%
x264 [info]: i8 v,h,dc,ddl,ddr,vr,hd,vl,hu: 7% 6% 3% 11% 17% 16% 15% 13% 11%
x264 [info]: i4 v,h,dc,ddl,ddr,vr,hd,vl,hu: 10% 7% 3% 9% 17% 16% 14% 12% 12%
x264 [info]: i8c dc,h,v,p: 35% 24% 20% 21%
x264 [info]: Weighted P-Frames: Y:1.7% UV:0.5%
x264 [info]: ref P L0: 49.0% 11.0% 17.0% 6.1% 5.0% 3.8% 3.5% 2.0% 2.2% 0.5% 0.0%
x264 [info]: ref B L0: 77.7% 10.8% 4.9% 2.3% 1.7% 1.4% 0.8% 0.3%
x264 [info]: ref B L1: 93.4% 6.6%
x264 [info]: kb/s:2016.44

x264 [total]: encoded 154390 frames, 6.86 fps, 2016.44 kb/s

TIME
------------------------------
Общее время кодирования: 7 hour 34 min 6 sec
Файл получился на: 1548.99 mb
pic pic pic
Для увеличения картинки щелкните мышкой по превью

Этот торрент недоступен для скачивания без регистрации, однако доступен по публичной magnet-ссылке (источники с публичных трекеров). Перед использованием ссылки прочтите, пожалуйста Пользовательское соглашение, а также как можно дольше оставайтесь на раздаче! Для того, чтобы скачать сам торрент-файл (который видит больше источников), а также для того, чтобы поблагодарить релизера, вам необходимо зарегистрироваться. Если регистрироваться лень - вы можете также попробовать скачать релиз по нашим партнерским ссылкам ниже.

[underverse.su].t29691.torrent
Трекер: Зарегистрирован   [ 31.07.2013 11:52 ]  

Статус: проверено (by Паукан at 31.07.2013 11:52)
Поблагодарили: пока никто не поблагодарил...
Тип торрента: публичный - доступные источники с открытых трекеров: 
Размер: 2,18 GB (занимает 1/2 DVDR, для записи нужно 1 болванка DVDR/RW)
 
 
Похожие темы
Форум Тема Автор Торрент Отв. Посл. сооб.
* Архив Бой без правил / Fighting (Дито Монтиель) [2009 г., боевик, драма, DVDRip] Androgon

2 | 715

29.08.2010 23:52


Яндекс.Метрика powered by Sphinx


В Н И М А Н И Е
Сайт не распространяет и не хранит электронные версии произведений, а лишь бесплатно и без коммерческой выгоды (не требуя взамен платы,
SMS и т.д.) предоставляет доступ к создаваемому пользователями каталогу ссылок на торрент-файлы, которые содержат только списки хеш-сумм.
Убедительная просьба с жалобами обращаться напрямую к пользователю, разместившему торрент файл.

Вверх