Loading...
Error

Жутко громко и запредельно близко / Extremely Loud & Incredibly Close (Стивен Долдри) [2011 г., драма, детектив, приключения, BDRip-AVC] MVO + Original

Статистика раздачи
Размер:  2,35 GB   |    Зарегистрирован:  3 года 4 месяца   |    Скачан:  10 раз

Полного источника не было: 2 года 8 месяцев

Сидов:  0  |  0 KB/s  ]   Личеров:  0  |  0 KB/s  ]

* - сиды/пиры с внешних источников

   
 
Автор Сообщение

Чертёнок Пол:Муж

31-Июл-2013 09:40

Жутко громко и запредельно близко / Extremely Loud & Incredibly Close


Год выпуска: 2011
Жанр: драма, детектив, приключения
Страна: США
Режиссер: Стивен Долдри
В ролях: Том Хэнкс, Сандра Буллок, Томас Хорн, Макс фон Сюдов, Виола Дэвис, Джон Гудмен, Джеффри Райт, Зои Колдуэлл, Дэннис Хирн, Пол Клементовиц
Сюжет фильма:
Десятилетний Оскар теряет отца в день атаки на башни-близнецы в Нью-Йорке. По всему городу Оскар ищет информацию, которая должна привести его к разрешению загадки отца. На пути мальчику встретятся разные люди, но их всех объединяет страшная катастрофа, поэтому каждый пытается справиться с собственным горем.


Качество видео: BDRip-AVC
Продолжительность: 02:09:28
Формат: MKV
Видео: MPEG-4 AVC, 1024x426, 1699kbps
Аудио #1: русский, многоголосый закадровый [профессиональный], AC3 5.1, 448kbps
Аудио #2: английский, оригинал, AC3 5.1, 448kbps
Субтитры #1: тип: вшитые отключаемые, русский, формат: SRT
Субтитры #2: тип: вшитые отключаемые, английский, формат: SRT

Код:

Общее
Уникальный идентификатор : 187076064841026291244723006875141505783 (0x8CBD8A1DB0DA0D2CAE4D1884382982F7)
Полное имя : E:Zhutko.gromko.i.zapredelno.blizko.2011.x264.BDRip.(AVC).ExKinoRay.mkv
Формат : Matroska
Размер файла : 2,35 Гбайт
Продолжительность : 2 ч. 9 м.
Общий поток : 2596 Кбит/сек
Название фильма : Zhutko.gromko.i.zapredelno.blizko.2011.x264.BDRip.(AVC).ExKinoRay
Дата кодирования : UTC 2013-07-30 18:27:21
Программа кодирования : mkvmerge v4.0.0 ('The Stars were mine') сборка от Jun 6 2010 16:18:42
Библиотека кодирования : libebml v1.0.0 + libmatroska v1.0.0

Видео
Идентификатор : 1
Формат : AVC
Формат/Информация : Advanced Video Codec
Профиль формата : High@L4.1
Параметр CABAC формата : Да
Параметр ReFrames формата : 8 кадров
Идентификатор кодека : V_MPEG4/ISO/AVC
Продолжительность : 2 ч. 9 м.
Битрейт : 1699 Кбит/сек
Ширина : 1024 пикс.
Высота : 426 пикс.
Соотношение сторон : 2,40:1
Частота кадров : 23,976 кадр/сек
Цветовое пространство : YUV
Подвыборка цветности : 4:2:0
Битовая глубина : 8 бит
Тип развёртки : Прогрессивная
Бит/(Пиксели*Кадры) : 0.162
Размер потока : 1,49 Гбайт (63%)
Заголовок : Rip by Enigma-Vladislav71
Библиотека кодирования : x264 core 129 r2245 bc13772
Настройки программы : cabac=1 / ref=8 / deblock=1:-2:-2 / analyse=0x3:0x133 / me=umh / subme=11 / psy=1 / psy_rd=1.00:0.00 / mixed_ref=1 / me_range=48 / chroma_me=1 / trellis=2 / 8x8dct=1 / cqm=0 / deadzone=21,11 / fast_pskip=0 / chroma_qp_offset=-2 / threads=3 / lookahead_threads=1 / sliced_threads=0 / nr=0 / decimate=0 / interlaced=0 / bluray_compat=0 / constrained_intra=0 / bframes=8 / b_pyramid=2 / b_adapt=2 / b_bias=0 / direct=3 / weightb=1 / open_gop=0 / weightp=2 / keyint=240 / keyint_min=23 / scenecut=40 / intra_refresh=0 / rc_lookahead=40 / rc=2pass / mbtree=1 / bitrate=1699 / ratetol=1.0 / qcomp=0.60 / qpmin=10 / qpmax=51 / qpstep=4 / cplxblur=20.0 / qblur=0.5 / ip_ratio=1.40 / aq=2:1.00
Язык : English

Аудио #1
Идентификатор : 2
Формат : AC-3
Формат/Информация : Audio Coding 3
Расширение режима : CM (complete main)
Идентификатор кодека : A_AC3
Продолжительность : 2 ч. 9 м.
Вид битрейта : Постоянный
Битрейт : 448 Кбит/сек
Каналы : 6 каналов
Расположение каналов : Front: L C R, Side: L R, LFE
Частота : 48,0 КГц
Битовая глубина : 16 бит
Метод сжатия : С потерями
Размер потока : 415 Мбайт (17%)
Язык : Russian

Аудио #2
Идентификатор : 3
Формат : AC-3
Формат/Информация : Audio Coding 3
Расширение режима : CM (complete main)
Идентификатор кодека : A_AC3
Продолжительность : 2 ч. 9 м.
Вид битрейта : Постоянный
Битрейт : 448 Кбит/сек
Каналы : 6 каналов
Расположение каналов : Front: L C R, Side: L R, LFE
Частота : 48,0 КГц
Битовая глубина : 16 бит
Метод сжатия : С потерями
Размер потока : 415 Мбайт (17%)
Язык : English

Текст #1
Идентификатор : 4
Формат : UTF-8
Идентификатор кодека : S_TEXT/UTF8
Идентификатор кодека/Информация : UTF-8 Plain Text
Язык : Russian

Текст #2
Идентификатор : 5
Формат : UTF-8
Идентификатор кодека : S_TEXT/UTF8
Идентификатор кодека/Информация : UTF-8 Plain Text
Язык : English

Меню
00:00:00.000 : en:Chapter 01
00:09:45.167 : en:Chapter 02
00:19:20.868 : en:Chapter 03
00:30:38.419 : en:Chapter 04
00:40:29.760 : en:Chapter 05
00:50:47.669 : en:Chapter 06
01:02:01.676 : en:Chapter 07
01:10:17.671 : en:Chapter 08
01:20:05.675 : en:Chapter 09
01:30:13.950 : en:Chapter 10
01:38:48.255 : en:Chapter 11
01:49:26.309 : en:Chapter 12
02:00:31.682 : en:Chapter 13
02:02:19.957 : en:Chapter 14
picpicpicpic
Для увеличения картинки щелкните мышкой по превью

Этот торрент недоступен для скачивания без регистрации, однако доступен по публичной magnet-ссылке (источники с публичных трекеров). Перед использованием ссылки прочтите, пожалуйста Пользовательское соглашение, а также как можно дольше оставайтесь на раздаче! Для того, чтобы скачать сам торрент-файл (который видит больше источников), а также для того, чтобы поблагодарить релизера, вам необходимо зарегистрироваться. Если регистрироваться лень - вы можете также попробовать скачать релиз по нашим партнерским ссылкам ниже.

[underverse.su].t29685.torrent
Трекер: Зарегистрирован   [ 31.07.2013 09:40 ]  

Статус: проверено (by Чертёнок at 31.07.2013 09:40)
Поблагодарили: пока никто не поблагодарил...
Тип торрента: публичный - доступные источники с открытых трекеров: 
Размер: 2,35 GB (занимает 0,54 DVDR, для записи нужно 1 болванка DVDR/RW)
 
 
Похожие темы
Форум Тема Автор Торрент Отв. Посл. сооб.
Зарубежное кино [DVDRip, Low-Res HDRip, и т.д.] Жутко громко и запредельно близко / Extremely Loud & Incredibly Close (Стивен Долдри) [2011 г., драма, детектив, приключения, HDRip] RG NewCinema
6 | 0

0 | 507

27

11.07.2012 16:28

Зарубежное кино [DVDRip, Low-Res HDRip, и т.д.] Жутко громко и запредельно близко / Extremely Loud & Incredibly Close (Стивен Долдри) [2011 г., драма, HDRip] MVO 90ytr90
2 | 0

0 | 990

7

15.12.2012 10:42


Яндекс.Метрика powered by Sphinx


В Н И М А Н И Е
Сайт не распространяет и не хранит электронные версии произведений, а лишь бесплатно и без коммерческой выгоды (не требуя взамен платы,
SMS и т.д.) предоставляет доступ к создаваемому пользователями каталогу ссылок на торрент-файлы, которые содержат только списки хеш-сумм.
Убедительная просьба с жалобами обращаться напрямую к пользователю, разместившему торрент файл.

Вверх