Loading...
Error

20000 лье под водой / 20000 Leagues Under the Sea (Ричард Флайшер) [1954 г., Фантастика, драма, приключения, семейный , DVDRip-AVC] MVO

Статистика раздачи
Размер:  1,65 GB   |    Зарегистрирован:  3 года 4 месяца   |    Скачан:  14 раз

Полного источника не было: 2 года 3 месяца

Сидов:  0  |  0 KB/s  ]   Личеров:  0  |  0 KB/s  ]

* - сиды/пиры с внешних источников

   
 
Автор Сообщение

Чертёнок Пол:Муж

31-Июл-2013 08:41

20000 лье под водой / 20000 Leagues Under the Sea


Год выпуска: 1954
Жанр: Фантастика, драма, приключения, семейный
Страна: США
Режиссер: Ричард Флайшер
В ролях: Кирк Дуглас, Джеймс Мэйсон, Пол Лукас, Петер Лорре, Роберт Дж. Уилки, Тед де Корсия, Карлтон Янг, Дж. М. Кэрриган, Перси Хелтон, Тед Купер
Сюжет фильма:
На календаре 1868 год и весь Сан-Франциско взбудоражен поступающими сообщениями о плавающем под водой огромном чудовище, которое может сожрать любое судно, если оно к нему приближается. Многие плавания отменены, и правительство вынуждено послать военный корабль исследовать и очистить море от «чудищ».
Корабль этот был потоплен неизвестным «существом», и только троим чудом удалось спастись: профессональному гарпунисту, профессору из Морского музея в Париже и его помощнику. Их вытаскивают из воды на эту чуду-юду, которое оказывается подводной лодкой Капитана Немо, ученого, изобретателя и радикального борца за мир. Он топит корабли с благородной целью покончить с войной на бескрайних водах мирового океана…


Качество видео: DVDRip-AVC
Продолжительность: 02:01:52
Формат: MKV
Видео: MPEG-4 AVC, 1024x576, 1750kbps
Аудио: русский, многоголосый закадровый [профессиональный], AC3, 1ch, 192kbps

Код:

Формат : Matroska
Версия формата : Version 2
Размер файла : 1,65 Гбайт
Продолжительность : 2 ч. 1 м.
Общий поток : 1944 Кбит/сек
Дата кодирования : UTC 2013-07-30 20:19:29
Программа кодирования : mkvmerge v5.8.0 ('No Sleep / Pillow') built on Sep 2 2012 15:37:04
Библиотека кодирования : libebml v1.2.3 + libmatroska v1.3.0

Видео
Идентификатор : 1
Формат : AVC
Формат/Информация : Advanced Video Codec
Профиль формата : High@L4.1
Параметр CABAC формата : Да
Параметр ReFrames формата : 5 кадров
Идентификатор кодека : V_MPEG4/ISO/AVC
Продолжительность : 2 ч. 1 м.
Битрейт : 1750 Кбит/сек
Ширина : 1024 пикселя
Высота : 576 пикселей
Соотношение сторон : 16:9
Режим частоты кадров : Постоянный
Частота кадров : 25,000 кадров/сек
Цветовое пространство : YUV
Субдискретизация насыщенности : 4:2:0
Битовая глубина : 8 бит
Тип развёртки : Прогрессивная
Бит/(Пиксели*Кадры) : 0.119
Размер потока : 1,46 Гбайт (88%)
Библиотека кодирования : x264 core 125 r2208 d9d2288
Настройки программы : cabac=1 / ref=5 / deblock=1:-2:-2 / analyse=0x3:0x131 / me=umh / subme=9 / psy=1 / psy_rd=1.00:0.15 / mixed_ref=1 / me_range=32 / chroma_me=1 / trellis=2 / 8x8dct=1 / cqm=0 / deadzone=21,11 / fast_pskip=0 / chroma_qp_offset=-3 / threads=12 / lookahead_threads=2 / sliced_threads=0 / nr=0 / decimate=1 / interlaced=0 / bluray_compat=0 / constrained_intra=0 / bframes=5 / b_pyramid=2 / b_adapt=0 / b_bias=0 / direct=1 / weightb=1 / open_gop=0 / weightp=2 / keyint=250 / keyint_min=25 / scenecut=40 / intra_refresh=0 / rc_lookahead=50 / rc=2pass / mbtree=1 / bitrate=1750 / ratetol=1.0 / qcomp=0.60 / qpmin=0 / qpmax=69 / qpstep=4 / cplxblur=20.0 / qblur=0.5 / ip_ratio=1.40 / aq=1:1.00
Default : Да
Forced : Нет

Аудио
Идентификатор : 2
Формат : AC-3
Формат/Информация : Audio Coding 3
Расширение режима : CM (complete main)
Параметр Endianness формата : Big
Идентификатор кодека : A_AC3
Продолжительность : 2 ч. 1 м.
Вид битрейта : Постоянный
Битрейт : 192 Кбит/сек
Каналы : 1 канал
Расположение каналов : Front: C
Частота : 48,0 КГц
Битовая глубина : 16 бит
Метод сжатия : С потерями
Размер потока : 167 Мбайт (10%)
Default : Да
Forced : Нет
picpicpicpic
Для увеличения картинки щелкните мышкой по превью

Этот торрент недоступен для скачивания без регистрации, однако доступен по публичной magnet-ссылке (источники с публичных трекеров). Перед использованием ссылки прочтите, пожалуйста Пользовательское соглашение, а также как можно дольше оставайтесь на раздаче! Для того, чтобы скачать сам торрент-файл (который видит больше источников), а также для того, чтобы поблагодарить релизера, вам необходимо зарегистрироваться. Если регистрироваться лень - вы можете также попробовать скачать релиз по нашим партнерским ссылкам ниже.

[underverse.su].t29681.torrent
Трекер: Зарегистрирован   [ 31.07.2013 08:41 ]  

Статус: проверено (by Чертёнок at 31.07.2013 08:41)
Поблагодарили: пока никто не поблагодарил...
Тип торрента: публичный - доступные источники с открытых трекеров: 
Размер: 1,65 GB (занимает 0,38 DVDR, для записи нужно 1 болванка DVDR/RW)
 
 

Яндекс.Метрика powered by Sphinx


В Н И М А Н И Е
Сайт не распространяет и не хранит электронные версии произведений, а лишь бесплатно и без коммерческой выгоды (не требуя взамен платы,
SMS и т.д.) предоставляет доступ к создаваемому пользователями каталогу ссылок на торрент-файлы, которые содержат только списки хеш-сумм.
Убедительная просьба с жалобами обращаться напрямую к пользователю, разместившему торрент файл.

Вверх