Loading...
Error

Ночные ласточки [01-08 из 8] (Михаил Кабанов (II)) [2013 г., военный, мелодрама, DVDRip]

Статистика раздачи
Размер:  3,96 GB   |    Зарегистрирован:  3 года 4 месяца   |    Скачан:  12 раз

Полного источника не было: 6 месяцев

Сидов:  0  |  0 KB/s  ]   Личеров:  0  |  0 KB/s  ]

* - сиды/пиры с внешних источников

   
 
Автор Сообщение

Чертёнок Пол:Муж

29-Июл-2013 15:45

Ночные ласточки
Страна: Россия
Производство: Star Media
Жанр: Военный, мелодрама
Год выпуска: 2013
Продолжительность: 8х ~ 00:47:00

Язык: Русский

Cубтитры: Нет
Режиссер: Михаил Кабанов (II)

В ролях: Татьяна Арнтгольц, Елизавета Нилова, Екатерина Олькина, Олеся Фаттахова, Мария Пирогова, Елена Куликова, Денис Никифоров, Михаил Евланов, Евгений Ганелин, Игорь Савочкин, Анатолий Пашинин, Дмитрий Мазуров, Олег Гераськин, Владимир Капустин, Александр Новик, Константин Спасский, Наталья Людскова, Анатолий Завьялов, Алексей Медведев, Максим Студеновский



Описание: Вначале октября 1941 года был подписан Сталиным приказ о сформировании женских авиационных полков. Мужественные девушки наравне с мужчинами наносили сокрушительные удары по врагу. не жалея сил, падая с ног то усталости на ночных бомбардировщиках "ПО-2" взлетая по первому приказу, они разрушали переправы и оборонительные сооружения, уничтожали технику, доставляли данные о скоплении фашистских войск. Порой женщины хитростью и смекалкой помогали в тяжелых ситуациях. Фашисты стали называть летчиц "Ночными ласточками", а мужчины боевые товарищи испытывали гордость и уважение за настоящих русских женщин. 46-й Гвардейский бомбардировочный Таманский полк прошел боевой путь от Сальских степей и Дона до фашистской Германии. Полк совершил 24 тысячи боевых вылетов, в нем было 25 женщин Героев Советского Союза, многие посмертно.

Исходник: DVD9 R5
Тип релиза: DVDRip
Контейнер: AVI
Видео: 720x400 (1.80:1), 23.976 fps, XviD ~1275 kbps avg, 0.18 bit/pixel
Аудио: 48 kHz, AC3 2.0 ~192.00 kbps avg
Общее
Полное имя : D:залитьНочные ласточки1.avi
Формат : AVI
Формат/Информация : Audio Video Interleave
Размер файла : 507 Мбайт
Продолжительность : 48 м.
Общий поток : 1477 Кбит/сек
Программа кодирования : VirtualDubMod 1.5.10.3 | www.virtualdub-fr.org || (build 2550/release)
Библиотека кодирования : VirtualDubMod build 2550/release

Видео
Идентификатор : 0
Формат : MPEG-4 Visual
Профиль формата : Advanced Simple@L5
Параметр BVOP формата : 2
Параметр QPel формата : Нет
Параметр GMC формата : Без точки перехода
Параметр матрицы формата : Default (MPEG)
Идентификатор кодека : XVID
Идентификатор кодека/Подсказка : XviD
Продолжительность : 48 м.
Битрейт : 1275 Кбит/сек
Ширина : 720 пикселей
Высота : 400 пикселей
Соотношение сторон : 16:9
Частота кадров : 23,976 кадра/сек
Цветовое пространство : YUV
Субдискретизация насыщенности : 4:2:0
Битовая глубина : 8 бит
Тип развёртки : Прогрессивная
Метод сжатия : С потерями
Бит/(Пиксели*Кадры) : 0.185
Размер потока : 438 Мбайт (86%)
Библиотека кодирования : XviD 1.2.1 (UTC 2008-12-04)

Аудио
Идентификатор : 1
Формат : AC-3
Формат/Информация : Audio Coding 3
Расширение режима : CM (complete main)
Параметр Endianness формата : Big
Идентификатор кодека : 2000
Продолжительность : 47 м.
Вид битрейта : Постоянный
Битрейт : 192 Кбит/сек
Каналы : 2 канала
Расположение каналов : Front: L R
Частота : 48,0 КГц
Битовая глубина : 16 бит
Метод сжатия : С потерями
Размер потока : 65,9 Мбайт (13%)
Выравнивание : Разделение по промежуткам
Продолжительность промежутка : 42 мс. (1,00 видеокадр)
Время предзагрузки промежутка : 500 мс.
picpicpicpicpicpic
Для увеличения картинки щелкните мышкой по превью

Этот торрент недоступен для скачивания без регистрации, однако доступен по публичной magnet-ссылке (источники с публичных трекеров). Перед использованием ссылки прочтите, пожалуйста Пользовательское соглашение, а также как можно дольше оставайтесь на раздаче! Для того, чтобы скачать сам торрент-файл (который видит больше источников), а также для того, чтобы поблагодарить релизера, вам необходимо зарегистрироваться. Если регистрироваться лень - вы можете также попробовать скачать релиз по нашим партнерским ссылкам ниже.

[underverse.su].t29647.torrent
Трекер: Зарегистрирован   [ 29.07.2013 15:45 ]  

Статус: проверено (by Чертёнок at 29.07.2013 15:45)
Поблагодарили: 1 человек
Тип торрента: публичный - доступные источники с открытых трекеров: 
Размер: 3,96 GB (занимает 0,91 DVDR, для записи нужно 1 болванка DVDR/RW)
 
 
Похожие темы
Форум Тема Автор Торрент Отв. Посл. сооб.
xUSSR сериалы Ночные ласточки (1-8 серии из 8) (Михаил Кабанов (II)) [2013 г., Боевик, мелодрама, SatRip] Original Чертёнок
23 | 2

0 | 1171

35

30.01.2013 21:23

xUSSR сериалы [BD / Remux / BDRip / WEB-DL / HDTV 1080/720р] Ночные ласточки [01-08 из 08] (Михаил Кабанов (II)) [2013 г., боевик, мелодрама, HDTVRip 720p] Чертёнок
1 | 0

0 | 519

6

30.07.2013 09:42


Яндекс.Метрика powered by Sphinx


В Н И М А Н И Е
Сайт не распространяет и не хранит электронные версии произведений, а лишь бесплатно и без коммерческой выгоды (не требуя взамен платы,
SMS и т.д.) предоставляет доступ к создаваемому пользователями каталогу ссылок на торрент-файлы, которые содержат только списки хеш-сумм.
Убедительная просьба с жалобами обращаться напрямую к пользователю, разместившему торрент файл.

Вверх