Loading...
Error

Гагарин. Первый в космосе (Павел Пархоменко) [2013 г., драма, биография, история, BDRip] HQ Underverse

Статистика раздачи
Размер:  1,5 GB   |    Зарегистрирован:  3 года 4 месяца   |    Скачан:  55 раз

Полного источника не было: 4 месяца 21 день

Сидов:  0  |  0 KB/s  ]   Личеров:  0  |  0 KB/s  ]

* - сиды/пиры с внешних источников

   
 
Автор Сообщение

HQ Underverse 

29-Июл-2013 11:53

Гагарин. Первый в космосе


Год выпуска: 2013
Жанр: драма, биография, история
Страна: Россия
Режиссер: Павел Пархоменко
В ролях: Ярослав Жалнин, Михаил Филиппов, Владимир Стеклов, Ольга Иванова, Вадим Мичман, Даниил Воробьев, Надежда Маркина, Виктор Проскурин, Инга Стрелкова-Оболдина, Валерий Афанасьев
Сюжет фильма:
Фильм посвящен первым шагам человечества на пути освоения космоса и непосредственно судьбе первого космонавта Ю. А. Гагарина. Основной лейтмотив — борьба за право быть первым: соревнование в первом отряде космонавтов; конкуренция технологий в ракетостроении; противостояние сверхдержав — СССР и США.

В первый отряд космонавтов отбирали из трёх тысяч летчиков-истребителей по всей стране. В легендарную двадцатку попали лучшие из лучших. Кто из них полетит первым, не знал никто. На этом пути пришлось бороться не только с земным притяжением…

  • Мировая премьера: 6 июня 2013
  • Российская премьера: 6 июня 2013, «Централ Партнершип»


Качество видео: BDRip

Продолжительность: 01:48:10
Формат: avi
Видео: XviD, 720x400, 1533 kbps
Аудио: русский, оригинал, AC3 5.1, 448 kbps

Код:

General
Complete name                    : F:\Гагарин. Первый в космосе\Gagarin.2013.BDRip.XviD.AC3.Rus.O.HQ.Underverse.avi
Format                           : AVI
Format/Info                      : Audio Video Interleave
File size                        : 1.50 GiB
Duration                         : 1h 48mn
Overall bit rate                 : 1 991 Kbps
Writing application              : VirtualDubMod 1.5.10.2 (build 2540/release)
Writing library                  : VirtualDubMod build 2540/release

Video
ID                               : 0
Format                           : MPEG-4 Visual
Format profile                   : Streaming Video@L1
Format settings, BVOP            : Yes
Format settings, QPel            : No
Format settings, GMC             : No warppoints
Format settings, Matrix          : Custom
Muxing mode                      : Packed bitstream
Codec ID                         : XVID
Codec ID/Hint                    : XviD
Duration                         : 1h 48mn
Bit rate                         : 1 534 Kbps
Width                            : 720 pixels
Height                           : 400 pixels
Display aspect ratio             : 16/9
Frame rate                       : 25.000 fps
Resolution                       : 24 bits
Colorimetry                      : 4:2:0
Scan type                        : Progressive
Bits/(Pixel*Frame)               : 0.213
Stream size                      : 1.16 GiB (77%)
Writing library                  : XviD 64

Audio
ID                               : 1
Format                           : AC-3
Format/Info                      : Audio Coding 3
Codec ID                         : 2000
Duration                         : 1h 48mn
Bit rate mode                    : Constant
Bit rate                         : 448 Kbps
Channel(s)                       : 6 channels
Channel positions                : Front: L C R, Surround: L R, LFE
Sampling rate                    : 48.0 KHz
Stream size                      : 347 MiB (22%)
Alignment                        : Split accross interleaves
Interleave, duration             : 40 ms (1.00 video frame)
Interleave, preload duration     : 500 ms

Релиз группы:

picpicpic
Для увеличения картинки щелкните мышкой по превью

Этот торрент недоступен для скачивания без регистрации, однако доступен по публичной magnet-ссылке (источники с публичных трекеров). Перед использованием ссылки прочтите, пожалуйста Пользовательское соглашение, а также как можно дольше оставайтесь на раздаче! Для того, чтобы скачать сам торрент-файл (который видит больше источников), а также для того, чтобы поблагодарить релизера, вам необходимо зарегистрироваться. Если регистрироваться лень - вы можете также попробовать скачать релиз по нашим партнерским ссылкам ниже.

[underverse.su].t29641.torrent
Трекер: Зарегистрирован   [ 29.07.2013 11:53 ]  

Статус: проверено (by HQ Underverse at 29.07.2013 11:53)
Поблагодарили: 2 человека
Тип торрента: публичный - доступные источники с открытых трекеров: 
Размер: 1,5 GB (занимает 0,34 DVDR, для записи нужно 1 болванка DVDR/RW)
 
 
Похожие темы
Форум Тема Автор Торрент Отв. Посл. сооб.
Наше кино [DVDRip, Low-Res HDRip, и т.д.] Гагарин. Первый в космосе (Павел Пархоменко) [2013 г., драма, биография, история, DVDRip] Чертёнок
6 | 2

0 | 945

119

17.07.2013 05:12

Наше кино [DVDRip, Low-Res HDRip, и т.д.] Гагарин. Первый в космосе (Павел Пархоменко) [2013 г., драма, биография, история, DVDRip-AVC] Паукан
0 | 0

1 | 627

41

03.08.2013 09:40

Наше кино [DVDRip, Low-Res HDRip, и т.д.] Гагарин. Первый в космосе (Павел Пархоменко) [2013 г., драма, биография, история, BDRip] 90ytr90
13 | 0

0 | 696

26

22.07.2013 18:03

Наше кино [DVD / HDDVD / BD / Remux] Гагарин. Первый в космосе (Павел Пархоменко) [2013 г., драма, биография, история, DVD-9] Чертёнок
4 | 0

0 | 498

11

17.07.2013 05:01

Наше кино [DVD / HDDVD / BD / Remux] Гагарин. Первый в космосе (Павел Пархоменко) [2013, Россия, Драма, биография, история, Blu-ray disc] uzi2009
0 | 0

0 | 438

2

13.03.2014 21:28

Наше кино [HDDVDRip / BDRip / WEB-DL / HDTV 1080/720р] Гагарин. Первый в космосе (Павел Пархоменко) [2013 г., Драма, Биография, История, BDRip 1080p] Ведьмочка
1 | 0

0 | 333

3

30.09.2014 11:44

Наше кино [HDDVDRip / BDRip / WEB-DL / HDTV 1080/720р] Гагарин. Первый в космосе (Павел Пархоменко) [2013 г., Драма, Биография, История, BDRip 720p] Ведьмочка
4 | 1

0 | 324

3

30.09.2014 11:48

Наше кино [HDDVDRip / BDRip / WEB-DL / HDTV 1080/720р] Гагарин. Первый в космосе (Павел Пархоменко) [2013 г., Драма, Биография, История, BDRip 1080p] Ведьмочка
7 | 0

0 | 349

3

30.09.2014 11:55


Яндекс.Метрика powered by Sphinx


В Н И М А Н И Е
Сайт не распространяет и не хранит электронные версии произведений, а лишь бесплатно и без коммерческой выгоды (не требуя взамен платы,
SMS и т.д.) предоставляет доступ к создаваемому пользователями каталогу ссылок на торрент-файлы, которые содержат только списки хеш-сумм.
Убедительная просьба с жалобами обращаться напрямую к пользователю, разместившему торрент файл.

Вверх