Loading...
Error

Зловещие мертвецы: Черная книга / Evil Dead (Федерико Альварес) [2013 г., ужасы, BDRip] Dub + Original + Sub (Rus,Eng) HQ Underverse

Статистика раздачи
Размер:  1,45 GB   |    Зарегистрирован:  3 года 4 месяца   |    Скачан:  27 раз

Полного источника не было: 2 года 3 месяца

Сидов:  0  |  0 KB/s  ]   Личеров:  0  |  0 KB/s  ]

* - сиды/пиры с внешних источников

   
 
Автор Сообщение

HQ Underverse 

23-Июл-2013 14:37

Зловещие мертвецы: Черная книга / Evil Dead


Год выпуска: 2013
Жанр: ужасы
Страна: США
Режиссер: Федерико Альварес
В ролях: Джейн Леви, Шайло Фернандес, Лу Тэйлор Пуччи, Джессика Лукас, Элизабет Блэкмор, Феникс Коннолли, Джим МакЛарти, Сиан Дэвис, Стефен Баттерворф, Карл Виллетц
Сюжет фильма:
Молодая женщина Миа, пытающаяся избавиться от наркозависимости, отправляется вместе с братом и группой друзей в удалённую хижину, где они открывают Книгу мёртвых, что приводит к опасности и ужасу.

  • Мировая премьера: 8 марта 2013
  • Российская премьера: 5 апреля 2013, «WDSSPR»

|
Качество видео: BDRip

Продолжительность: 01:31:18
Формат: avi
Видео: XviD, 720x304, 1816 kbps
Аудио #1: русский, дублированный [лицензия], AC3 5.1, 448 kbps
Аудио #2: английский, оригинал, AC3 5.1, 448 kbps (отдельным файлом: здесь)
Субтитры #1: внешние, SRT, русский
Субтитры #2: внешние, SRT, английский

Код:

General
Complete name                    : F:\Зловещие мертвецы\Evil.Dead.2013.BDRip.XviD.AC3.Rus.D.HQ.Underverse.avi
Format                           : AVI
Format/Info                      : Audio Video Interleave
File size                        : 1.45 GiB
Duration                         : 1h 31mn
Overall bit rate                 : 2 274 Kbps
Writing application              : VirtualDubMod 1.5.10.2 (build 2540/release)
Writing library                  : VirtualDubMod build 2540/release

Video
ID                               : 0
Format                           : MPEG-4 Visual
Format profile                   : Streaming Video@L1
Format settings, BVOP            : Yes
Format settings, QPel            : No
Format settings, GMC             : No warppoints
Format settings, Matrix          : Custom
Muxing mode                      : Packed bitstream
Codec ID                         : XVID
Codec ID/Hint                    : XviD
Duration                         : 1h 31mn
Bit rate                         : 1 817 Kbps
Width                            : 720 pixels
Height                           : 304 pixels
Display aspect ratio             : 2.35
Frame rate                       : 23.976 fps
Resolution                       : 24 bits
Colorimetry                      : 4:2:0
Scan type                        : Progressive
Bits/(Pixel*Frame)               : 0.346
Stream size                      : 1.16 GiB (80%)
Writing library                  : XviD 64

Audio
ID                               : 1
Format                           : AC-3
Format/Info                      : Audio Coding 3
Codec ID                         : 2000
Duration                         : 1h 31mn
Bit rate mode                    : Constant
Bit rate                         : 448 Kbps
Channel(s)                       : 6 channels
Channel positions                : Front: L C R, Surround: L R, LFE
Sampling rate                    : 48.0 KHz
Stream size                      : 293 MiB (20%)
Alignment                        : Split accross interleaves
Interleave, duration             : 42 ms (1.00 video frame)
Interleave, preload duration     : 500 ms

General
Complete name                    : F:\Зловещие мертвецы\Evil.Dead.2013.BDRip.XviD.AC3.Rus.D.HQ.Underverse.ENG.ac3
Format                           : AC-3
Format/Info                      : Audio Coding 3
File size                        : 293 MiB
Duration                         : 1h 31mn
Overall bit rate                 : 448 Kbps

Audio
Format                           : AC-3
Format/Info                      : Audio Coding 3
Duration                         : 1h 31mn
Bit rate mode                    : Constant
Bit rate                         : 448 Kbps
Channel(s)                       : 6 channels
Channel positions                : Front: L C R, Surround: L R, LFE
Sampling rate                    : 48.0 KHz
Stream size                      : 293 MiB (100%)

Релиз группы:

picpicpic
Для увеличения картинки щелкните мышкой по превью

Этот торрент недоступен для скачивания без регистрации, однако доступен по публичной magnet-ссылке (источники с публичных трекеров). Перед использованием ссылки прочтите, пожалуйста Пользовательское соглашение, а также как можно дольше оставайтесь на раздаче! Для того, чтобы скачать сам торрент-файл (который видит больше источников), а также для того, чтобы поблагодарить релизера, вам необходимо зарегистрироваться. Если регистрироваться лень - вы можете также попробовать скачать релиз по нашим партнерским ссылкам ниже.

[underverse.su].t29458.torrent
Трекер: Зарегистрирован   [ 23.07.2013 14:37 ]  

Статус: проверено (by Паукан at 24.07.2013 04:40)
Поблагодарили: 1 человек
Тип торрента: публичный - доступные источники с открытых трекеров: 
Размер: 1,45 GB (занимает 1/3 DVDR, для записи нужно 1 болванка DVDR/RW)
 
 
Похожие темы
Форум Тема Автор Торрент Отв. Посл. сооб.
Зарубежное кино [DVDRip, Low-Res HDRip, и т.д.] Зловещие мертвецы / The Evil Dead (Сэм Рэйми) [1981 г., ужасы, HDRip-AVC] MVO RG NewCinema
0 | 0

0 | 971

9

09.04.2013 11:28

Зарубежное кино [DVDRip, Low-Res HDRip, и т.д.] Зловещие мертвецы: Черная книга / Evil Dead (Федерико Альварес) [2013 г., Ужасы, BDRip-AVC] VO + Original Чертёнок
0 | 0

1 | 1041

43

19.07.2013 17:25

Зарубежное кино [DVDRip, Low-Res HDRip, и т.д.] Зловещие мертвецы: Черная книга / Evil Dead (Федерико Альварес) [2013 г., ужасы, HDRip] AVO [Антон Карповский] Паукан
6 | 0

0 | 706

16

15.07.2013 14:27

Зарубежное кино [DVDRip, Low-Res HDRip, и т.д.] Зловещие мертвецы: Черная книга / Evil Dead (Федерико Альварес) [2013 г., ужасы, BDRip] Dub Чертёнок
0 | 0

3 | 879

69

22.07.2013 09:30

Зарубежное кино [DVDRip, Low-Res HDRip, и т.д.] Зловещие мертвецы 3: Армия тьмы / Army of Darkness (Сэм Рэйми) [1992 г., ужасы, фэнтези, боевик, комедия, BDRip] Чертёнок
11 | 0

0 | 869

21

25.07.2013 11:02

Зарубежное кино [DVD / HDDVD / BD / Remux] Зловещие мертвецы: Черная книга / Evil Dead (Федерико Альварес) [2013 г., Ужасы, DVD-9] DuB Чертёнок
0 | 0

0 | 862

6

12.08.2013 09:22

Зарубежное кино [DVD / HDDVD / BD / Remux] Зловещие мертвецы: Чёрная книга / Evil Dead (Федерико Альварес / Federico Alvarez) [2013, США, ужасы, BDRemux 1080p] Dub + AVO (А. Карповский) + VO (А. Матвеев) + Original (Eng) + Subs (Rus, Eng) uzi2009
5 | 0

0 | 493

7

30.05.2014 09:02

KplusH 

25-Авг-2014 03:23

Че-то не раздаёт никто...

Яндекс.Метрика powered by Sphinx


В Н И М А Н И Е
Сайт не распространяет и не хранит электронные версии произведений, а лишь бесплатно и без коммерческой выгоды (не требуя взамен платы,
SMS и т.д.) предоставляет доступ к создаваемому пользователями каталогу ссылок на торрент-файлы, которые содержат только списки хеш-сумм.
Убедительная просьба с жалобами обращаться напрямую к пользователю, разместившему торрент файл.

Вверх