Loading...
Error

Анатомия / Anatomie (Штефан Рузовицки) [2000 г., ужасы, триллер, DVDRip] MVO

Статистика раздачи
Размер:  1,46 GB   |    Зарегистрирован:  3 года 4 месяца   |    Скачан:  7 раз

Полного источника не было: 4 месяца 29 дней

Сидов:  0  |  0 KB/s  ]   Личеров:  0  |  0 KB/s  ]

* - сиды/пиры с внешних источников

   
 
Автор Сообщение

ФОКЕР Пол:Муж

22-Июл-2013 07:39

Анатомия / Anatomie


Год выпуска: 2000
Жанр: Ужасы, триллер
Страна: Германия
Режиссер: Штефан Рузовицки
В ролях: Франка Потенте, Бенно Фюрманн, Анна Лус, Себастьян Бломберг, Хольгер Спекханн, Трауготт Буре, Оливер Внук, Арндт Шверинг-Сонри, Андреас Гюнтер, Антониа Кесилиа Хольфельдер
Сюжет фильма:
Студентка медицинского колледжа за отличную успеваемость принята в медицинский университет в Хайдельберге. Первый курс, обучение в основном проходит в морге, где студенты кромсают трупы. Она не боится резать мертвых, даже если они безголовые и их конечности конвульсивно подрагивают. Она твердо уверена: в медицине всему есть научное объяснение. Постепенно она вместе со зрителями узнает о существовании тайного ордена антигиппократов, врачей, во имя медицины и будущих жизней отвергающих "условности": боль, страдания и смерть людей, живущих сейчас. Каково это, когда с тебя живьем снимают кожу, срезают мышцы, обнажают кости, вскрывают грудную клетку, одним словом, делают из тебя анатомическое пособие? Всем второстепенным героям не повезло - они это узнали. Они умерли во имя науки, одним из основоположников которой были печально известный доктор Менгеле и… дедушка главной героини. Она сражается не на жизнь, а насмерть, и, несмотря на то, что большая часть действия фильма происходит в морге, жизнь побеждает. Авторы фильма замечательным образом оставили бесспорным сам факт существования чудовищной Лиги. Во всем виноват, как всегда, один неуравновешенный молодой человек, который выбрал слишком ветреную подругу. А антигиппократы.. Ну, что-ж они все-таки двигают науку вперед! Злодеи наказаны, но ведь эти убийцы в белых халатах все-таки беспокоятся о будущем человечества. А цель, как мы знаем, почти всегда оправдывает средства.

Качество видео: DVDRip

Продолжительность: 01:39:27
Формат: AVI
Видео: XviD, 704x304, 1895 kbps
Аудио: русский, многоголосый закадровый [профессиональный], AC3 2.0, 192 kbps

Код:

M:\Загрузки\anatomiya_dvdrip_1.46.avi
  General
    Complete name : M:\Загрузки\anatomiya_dvdrip_1.46.avi
    Format : AVI
    Format/Info : Audio Video Interleave
    File size : 1.46 GiB
    Duration : 1h 39mn
    Overall bit rate : 2 097 Kbps
    Writing application : VirtualDubMod 1.5.10.3 | www.virtualdub-fr.org || (build 2550/release)
    Writing library : VirtualDubMod build 2550/release
  Video #0
    ID : 0
    Format : MPEG-4 Visual
    Format profile : Advanced Simple@L5
    Format settings, BVOP : 1
    Format settings, QPel : No
    Format settings, GMC : No warppoints
    Format settings, Matrix : Default (MPEG)
    Codec ID : XVID
    Codec ID/Hint : XviD
    Duration : 1h 39mn
    Bit rate : 1 896 Kbps
    Width : 704 pixels
    Height : 304 pixels
    Display aspect ratio : 2.35:1
    Frame rate : 23.976 fps
    Color space : YUV
    Chroma subsampling : 4:2:0
    Bit depth : 8 bits
    Scan type : Progressive
    Compression mode : Lossy
    Bits/(Pixel*Frame) : 0.369
    Stream size : 1.32 GiB (90%)
    Writing library : XviD 1.2.1 (UTC 2008-12-04)
  Audio #1
    ID : 1
    Format : AC-3
    Format/Info : Audio Coding 3
    Mode extension : CM (complete main)
    Format settings, Endianness : Big
    Codec ID : 2000
    Duration : 1h 39mn
    Bit rate mode : Constant
    Bit rate : 192 Kbps
    Channel(s) : 2 channels
    Channel positions : Front: L R
    Sampling rate : 48.0 KHz
    Bit depth : 16 bits
    Compression mode : Lossy
    Stream size : 137 MiB (9%)
    Alignment : Split accross interleaves
    Interleave, duration : 42 ms (1.00 video frame)
    Interleave, preload duration : 500 ms
picpicpicpic
Для увеличения картинки щелкните мышкой по превью

Этот торрент недоступен для скачивания без регистрации, однако доступен по публичной magnet-ссылке (источники с публичных трекеров). Перед использованием ссылки прочтите, пожалуйста Пользовательское соглашение, а также как можно дольше оставайтесь на раздаче! Для того, чтобы скачать сам торрент-файл (который видит больше источников), а также для того, чтобы поблагодарить релизера, вам необходимо зарегистрироваться. Если регистрироваться лень - вы можете также попробовать скачать релиз по нашим партнерским ссылкам ниже.

[underverse.su].t29410.torrent
Трекер: Зарегистрирован   [ 22.07.2013 07:39 ]  

Статус: проверено (by Паукан at 22.07.2013 07:53)
Поблагодарили: 1 человек
Тип торрента: публичный - доступные источники с открытых трекеров: 
Размер: 1,46 GB (занимает 1/3 DVDR, для записи нужно 1 болванка DVDR/RW)
 
 

Яндекс.Метрика powered by Sphinx


В Н И М А Н И Е
Сайт не распространяет и не хранит электронные версии произведений, а лишь бесплатно и без коммерческой выгоды (не требуя взамен платы,
SMS и т.д.) предоставляет доступ к создаваемому пользователями каталогу ссылок на торрент-файлы, которые содержат только списки хеш-сумм.
Убедительная просьба с жалобами обращаться напрямую к пользователю, разместившему торрент файл.

Вверх