Loading...
Error

Астрал на улице Арлетт / 388 Arletta Avenue (Рэндолл Коул / Randall Cole) [2011 г., триллер, BDRip] MVO

Статистика раздачи
Размер:  745 MB   |    Зарегистрирован:  3 года 4 месяца   |    Скачан:  10 раз

Полного источника не было: 2 года 5 месяцев

Сидов:  0  |  0 KB/s  ]   Личеров:  0  |  0 KB/s  ]

* - сиды/пиры с внешних источников

   
 
Автор Сообщение

Чертёнок Пол:Муж

21-Июл-2013 16:57

Астрал на улице Арлетт / 388 Arletta Avenue


«У вас когда-то было ощущение, что за вами наблюдают?»

Страна: Канада / Copper Heart Entertainment
Жанр: триллер
Год выпуска: 2011
Продолжительность: 01:26:22

Перевод: Профессиональный (многоголосый, закадровый)
Оригинальная аудиодорожка: нет
Субтитры: русский
Режиссер: Рэндолл Коул / Randall Cole
В ролях: Ник Стал, Миа Киршнер, Девон Сава, Аарон Абрамс, Шарлотта Салливан, Криста Бриджес, Грэхэм Эбби, Джерри Ди, Кайл Лабайн, Дэниэл Левек...

Описание: Неизвестный ведет наблюдение за молодой парой 24 часа в сутки при помощи размещенных в их доме скрытых камер. Вскоре герои начинают подозревать неладное и узнают о слежке. С этого момента кошмар ситуации только нарастает…

Исходник: BDRemux 1080p
Качество: BDRip
Формат: AVI
Видео: 720x400 (16:9), 23.976 fps, XViD ~ 1069 kbps avg, 0.155 bit/pixel
Аудио: 48 kHz, МР3 2 ch, 128 kbps, русский
Формат субтитров: SoftSub (srt)
Общее
Полное имя : Astral.na.ulitse.Arlett.2011.P.BDRp.745MB_[Youtracker]_by_avproh.rus.avi
Формат : AVI
Формат/Информация : Audio Video Interleave
Размер файла : 745 Мбайт
Продолжительность : 1 ч. 26 м.
Общий поток : 1206 Кбит/сек
Программа кодирования : VirtualDubModRus 1.5.10.2 (build 2542/release)
Библиотека кодирования : VirtualDubMod build 2542/release

Видео
Идентификатор : 0
Формат : MPEG-4 Visual
Профиль формата : Advanced Simple@L5
Параметр BVOP формата : 1
Параметр QPel формата : Нет
Параметр GMC формата : Без точки перехода
Параметр матрицы формата : Выборочная
Идентификатор кодека : XVID
Идентификатор кодека/Подсказка : XviD
Продолжительность : 1 ч. 26 м.
Битрейт : 1069 Кбит/сек
Ширина : 720 пикселей
Высота : 400 пикселей
Соотношение сторон : 16:9
Частота кадров : 23,976 кадра/сек
Цветовое пространство : YUV
Субдискретизация насыщенности : 4:2:0
Битовая глубина : 8 бит
Тип развёртки : Прогрессивная
Метод сжатия : С потерями
Бит/(Пиксели*Кадры) : 0.155
Размер потока : 660 Мбайт (89%)
Библиотека кодирования : XviD 65

Аудио
Идентификатор : 1
Формат : MPEG Audio
Версия формата : Version 1
Профиль формата : Layer 3
Режим : Joint stereo
Расширение режима : MS Stereo
Идентификатор кодека : 55
Идентификатор кодека/Подсказка : MP3
Продолжительность : 1 ч. 26 м.
Вид битрейта : Постоянный
Битрейт : 128 Кбит/сек
Каналы : 2 канала
Частота : 48,0 КГц
Метод сжатия : С потерями
Размер потока : 79,1 Мбайт (11%)
Выравнивание : Соединение по промежуткам
Продолжительность промежутка : 42 мс. (1,00 видеокадр)
Время предзагрузки промежутка : 504 мс.
picpicpicpic
Для увеличения картинки щелкните мышкой по превью

Этот торрент недоступен для скачивания без регистрации, однако доступен по публичной magnet-ссылке (источники с публичных трекеров). Перед использованием ссылки прочтите, пожалуйста Пользовательское соглашение, а также как можно дольше оставайтесь на раздаче! Для того, чтобы скачать сам торрент-файл (который видит больше источников), а также для того, чтобы поблагодарить релизера, вам необходимо зарегистрироваться. Если регистрироваться лень - вы можете также попробовать скачать релиз по нашим партнерским ссылкам ниже.

[underverse.su].t29394.torrent
Трекер: Зарегистрирован   [ 21.07.2013 16:57 ]  

Статус: проверено (by Чертёнок at 21.07.2013 16:58)
Поблагодарили: пока никто не поблагодарил...
Тип торрента: публичный - доступные источники с открытых трекеров: 
Размер: 745 MB (занимает 0,17 DVDR, для записи нужно 1 болванка DVDR/RW)
 
 
Похожие темы
Форум Тема Автор Торрент Отв. Посл. сооб.
Зарубежное кино [DVDRip, Low-Res HDRip, и т.д.] Астрал на улице Арлетт / 388 Arletta Avenue (Рэндолл Коул / Randall Cole) [2011 г., триллер, BDRip] MVO 90ytr90
1 | 0

0 | 3703

8

26.07.2013 15:15

Зарубежное кино [DVDRip, Low-Res HDRip, и т.д.] Астрал на улице Арлетт / 388 Arletta Avenue (Рэндолл Коул / Randall Cole) [2011 г., триллер, BDRip-AVC] MVO 90ytr90
1 | 0

0 | 4095

2

26.07.2013 15:20

Зарубежное кино [HDDVDRip / BDRip / WEB-DL / HDTV 1080/720р] Астрал на улице Арлетт / 388 Arletta Avenue (Рэндолл Коул / Randall Cole) [2011 г., триллер, BDRip 720p] MVO + VO (Zamez) + Original 90ytr90
0 | 2

0 | 310

2

26.07.2013 15:32

Зарубежное кино [HDDVDRip / BDRip / WEB-DL / HDTV 1080/720р] Астрал на улице Арлетт / 388 Arletta Avenue (Рэндолл Коул / Randall Cole) [2011 г., триллер, BDRip 1080p] MVO + VO (Zamez) + Original 90ytr90
2 | 0

0 | 3564

5

26.07.2013 15:40


Яндекс.Метрика powered by Sphinx


В Н И М А Н И Е
Сайт не распространяет и не хранит электронные версии произведений, а лишь бесплатно и без коммерческой выгоды (не требуя взамен платы,
SMS и т.д.) предоставляет доступ к создаваемому пользователями каталогу ссылок на торрент-файлы, которые содержат только списки хеш-сумм.
Убедительная просьба с жалобами обращаться напрямую к пользователю, разместившему торрент файл.

Вверх