Loading...
Error

«Супер Макс» / Серии 1-20 (20) ( Василий Бархатов, Вадим Данцигер ) [2013 г., комедия, SatRip]

Статистика раздачи
Размер:  5,36 GB   |    Зарегистрирован:  3 года 4 месяца   |    Скачан:  5 раз

Полного источника не было: 2 года

Сидов:  0  |  0 KB/s  ]   Личеров:  0  |  0 KB/s  ]

* - сиды/пиры с внешних источников

   
 
Автор Сообщение

nemos Пол:Муж

21-Июл-2013 08:27

Супер Макс


Год выпуска: 2013
Жанр: Комедия
Страна: Россия
Режиссер: Василий Бархатов, Вадим Данцигер
В ролях: Артемий Шаффер, Вадим Утенков, Сергей Походаев, Денис Гусев, Елена Бирюкова, Евгений Писарев, Андрей Булатов, Юлия Маргулис, Тихон Бузников, Захар Кабанов
Сюжет фильма:
Жизнь Максима Жданова состоит из забавных розыгрышей, безумных идей и экспериментов. Но все меняется, когда его семья переезжает в тихий пригородный поселок, где совершенно нечем заняться. А тут еще и в школе неприятности: после успешного прохождения тестирования учителя переводят Макса в класс для одаренных детей, рассмотрев в мальчике задатки вундеркинда. Одноклассники и друзья навешивают на него ярлык «ботаника», и Макс становится чужаком для обычных ребят.

Максу совсем не по душе участь вундеркинда. В новом классе у него есть единственный друг Антон — типичный «ботаник», а в семье — три брата: старший Валера, который был отправлен в военную академию за свои поступки, средний Денис — настоящий хулиган и младший Алексей — фантазер и мамин любимчик.

Вместе братья доставляют немало хлопот папе и маме, особенно маме, потому что именно она является главой семьи Ждановых. Папа порой сам превращается в пацана и принимает участие в шалостях детей, а соседи считают семью Ждановых не совсем нормальной. Макс это осознает и чувствует себя чужаком не только в школе, но и дома.


Качество видео: SatRip

Продолжительность: 00:25:00 серия
Формат: AVI
Видео: XviD, 720x400, 1 528 kbps
Аудио: русский, MP3 2.0, 128 kbps

Код:

F:\С underverse-3 Фильмы\Супер Макс\Super.Maks.20.2013.SATRip.RiperAM.avi
   General
      Complete name : F:\С underverse-3 Фильмы\Супер Макс\Super.Maks.20.2013.SATRip.RiperAM.avi
      Format : AVI
      Format/Info : Audio Video Interleave
      File size : 275 MiB
      Duration : 23mn 2s
      Overall bit rate : 1 665 Kbps
      Writing application : VirtualDubMod 1.5.10.3 | www.virtualdub-fr.org || (build 2550/release)
      Writing library : VirtualDubMod build 2550/release
   Video #0
      ID : 0
      Format : MPEG-4 Visual
      Format profile : Advanced Simple@L5
      Format settings, BVOP : 2
      Format settings, QPel : No
      Format settings, GMC : No warppoints
      Format settings, Matrix : Default (MPEG)
      Codec ID : XVID
      Codec ID/Hint : XviD
      Duration : 23mn 2s
      Bit rate : 1 528 Kbps
      Width : 720 pixels
      Height : 400 pixels
      Display aspect ratio : 16:9
      Frame rate : 25.000 fps
      Color space : YUV
      Chroma subsampling : 4:2:0
      Bit depth : 8 bits
      Scan type : Progressive
      Compression mode : Lossy
      Bits/(Pixel*Frame) : 0.212
      Stream size : 252 MiB (92%)
      Writing library : XviD 65
   Audio #1
      ID : 1
      Format : MPEG Audio
      Format version : Version 1
      Format profile : Layer 3
      Mode : Joint stereo
      Codec ID : 55
      Codec ID/Hint : MP3
      Duration : 23mn 2s
      Bit rate mode : Constant
      Bit rate : 128 Kbps
      Channel(s) : 2 channels
      Sampling rate : 48.0 KHz
      Compression mode : Lossy
      Stream size : 21.1 MiB (8%)
      Alignment : Aligned on interleaves
      Interleave, duration : 40 ms (1.00 video frame)
      Interleave, preload duration : 504 ms
Семпл: http://multi-up.com/886628

picpicpicpicpicpicpicpicpic
Для увеличения картинки щелкните мышкой по превью
Сериал который был выложен и зарегистрирован более двух месяцев назад буду раздавать с 23.00ч до 06.00ч утра ( вина в этом немоя, а пользователей которые неподдерживают раздачу)

Этот торрент недоступен для скачивания без регистрации, однако доступен по публичной magnet-ссылке (источники с публичных трекеров). Перед использованием ссылки прочтите, пожалуйста Пользовательское соглашение, а также как можно дольше оставайтесь на раздаче! Для того, чтобы скачать сам торрент-файл (который видит больше источников), а также для того, чтобы поблагодарить релизера, вам необходимо зарегистрироваться. Если регистрироваться лень - вы можете также попробовать скачать релиз по нашим партнерским ссылкам ниже.

[underverse.su].t29598.torrent
Трекер: Зарегистрирован   [ 27.07.2013 14:23 ]  

Статус: проверено (by Чертёнок at 27.07.2013 14:24)
Поблагодарили: пока никто не поблагодарил...
Тип торрента: публичный - доступные источники с открытых трекеров: 
Размер: 5,36 GB (занимает 1,23 DVDR, для записи нужно 2 болванки DVDR/RW)
 
 


Последний раз редактировалось: nemos (25.05.2014 19:22), всего редактировалось 7 раз(а)

Чертёнок Пол:Муж

21-Июл-2013 09:04

Кинозал ни чего не делает :ROFL:

nemos Пол:Муж

27-Июл-2013 14:24

Обновлена! Добавлены серии:11-20

ganvic1 

07-Авг-2013 13:50

Посмотрю только из-за одной фразы: "старший Валера, который был отправлен в военную академию за свои поступки". :ROFL:

Яндекс.Метрика powered by Sphinx


В Н И М А Н И Е
Сайт не распространяет и не хранит электронные версии произведений, а лишь бесплатно и без коммерческой выгоды (не требуя взамен платы,
SMS и т.д.) предоставляет доступ к создаваемому пользователями каталогу ссылок на торрент-файлы, которые содержат только списки хеш-сумм.
Убедительная просьба с жалобами обращаться напрямую к пользователю, разместившему торрент файл.

Вверх