Loading...
Error

Слабые проблески / Rushlights (Энтони Стац / Antoni Stutz) [2013 г., триллер, мелодрама, криминал, BDRip-AVC] DVO

Статистика раздачи
Размер:  1,28 GB   |    Зарегистрирован:  3 года 4 месяца   |    Скачан:  4 раза

Полного источника не было: 3 года 4 месяца

Сидов:  0  |  0 KB/s  ]   Личеров:  0  |  0 KB/s  ]

* - сиды/пиры с внешних источников

   
 
Автор Сообщение

Чертёнок Пол:Муж

20-Июл-2013 10:56

Слабые проблески / Rushlights


Страна:
Жанр: триллер, мелодрама, криминал
Год выпуска: 2013
Продолжительность: 01:36:21
Перевод: Двухголосый закадровый
Субтитры: нет
Оригинальная дорожка: нет
Главы: есть

Режиссер: Энтони Стац / Antoni Stutz
В ролях: Бо Бриджес, Эйдан Куинн, Джош Хендерсон, Хейли Уэбб, Джордан Бриджес, Лорна Рэвер, Джоэль МакКиннон Миллер, Криспиан Белфрадж, Филип Ленковски, Эйлин Грубба
Описание: Парочка молодых влюбленных из Лос-Анджелеса – Билли и Сара – решают провернуть небольшую аферу с целью обогащения. Для этого они отправляются в маленький городок в Техасе, чтобы обманным путем получить наследство погибшего парня, который якобы был их товарищем. Однако здесь им предстоит оказаться в кошмарной атмосфере жадности и предательства, когда они столкнутся с представителями местного преступного мира...


Качество видео: BDRip-AVC (энкод L)
Формат видео: MKV

Видео: AVC / High@L4.1 / 960 x 400 / 1 709 Kbps / 2.40:1
Аудио:
Russian: 48 kHz, AC3 Dolby Digital, 2.0 ch, ~192 kbps
Rushlights 2013 1080p Blu-ray AVC DTS-HD MA 5.1-HDWinG


Общее
Уникальный идентификатор : 193797317409802001644258787718675222194 (0x91CC0173DC5D8DEAB16D85CA5C0ECEB2)
Полное имя : E:V.tempSlabie.Probleski.2013.Bluray.x264.ac3.rus.by.L.mkv
Формат : Matroska
Версия формата : Version 2
Размер файла : 1,28 Гбайт
Продолжительность : 1 ч. 36 м.
Общий поток : 1902 Кбит/сек
Название фильма : Слабые проблески / Rushlights | Рип от L | Unionpeer
Дата кодирования : UTC 2013-07-20 05:01:41
Программа кодирования : mkvmerge v3.2.0 ('Beginnings') built on Feb 12 2010 16:46:17
Библиотека кодирования : libebml v0.7.9 + libmatroska v0.8.1

Видео
Идентификатор : 1
Формат : AVC
Формат/Информация : Advanced Video Codec
Профиль формата : High@L4.1
Параметр CABAC формата : Да
Параметр ReFrames формата : 10 кадров
Идентификатор кодека : V_MPEG4/ISO/AVC
Продолжительность : 1 ч. 36 м.
Битрейт : 1709 Кбит/сек
Ширина : 960 пикселей
Высота : 400 пикселей
Соотношение сторон : 2,40:1
Режим частоты кадров : Постоянный
Частота кадров : 23,976 кадра/сек
Цветовое пространство : YUV
Субдискретизация насыщенности : 4:2:0
Битовая глубина : 8 бит
Тип развёртки : Прогрессивная
Бит/(Пиксели*Кадры) : 0.186
Размер потока : 1,13 Гбайт (88%)
Библиотека кодирования : x264 core 133 r2334 a3ac64b
Настройки программы : cabac=1 / ref=10 / deblock=1:-2:-1 / analyse=0x3:0x133 / me=umh / subme=10 / psy=1 / psy_rd=1.10:0.10 / mixed_ref=1 / me_range=32 / chroma_me=1 / trellis=2 / 8x8dct=1 / cqm=0 / deadzone=21,11 / fast_pskip=0 / chroma_qp_offset=-4 / threads=6 / lookahead_threads=1 / sliced_threads=0 / nr=0 / decimate=1 / interlaced=0 / bluray_compat=0 / constrained_intra=0 / bframes=14 / b_pyramid=2 / b_adapt=2 / b_bias=0 / direct=3 / weightb=1 / open_gop=0 / weightp=2 / keyint=230 / keyint_min=21 / scenecut=40 / intra_refresh=0 / rc_lookahead=0 / rc=2pass / mbtree=0 / bitrate=1709 / ratetol=1.0 / qcomp=0.70 / qpmin=0 / qpmax=69 / qpstep=4 / cplxblur=20.0 / qblur=0.5 / vbv_maxrate=50000 / vbv_bufsize=62500 / nal_hrd=none / ip_ratio=1.35 / pb_ratio=1.25 / aq=2:0.90
Язык : English
Default : Нет
Forced : Нет

Аудио
Идентификатор : 2
Формат : AC-3
Формат/Информация : Audio Coding 3
Расширение режима : CM (complete main)
Параметр Endianness формата : Big
Идентификатор кодека : A_AC3
Продолжительность : 1 ч. 36 м.
Вид битрейта : Постоянный
Битрейт : 192 Кбит/сек
Каналы : 2 канала
Расположение каналов : Front: L R
Частота : 48,0 КГц
Битовая глубина : 16 бит
Метод сжатия : С потерями
Размер потока : 132 Мбайт (10%)
Заголовок : Любительский (многоголосый закдровый) "Пираты"
Язык : Russian
Default : Нет
Forced : Нет

Меню
00:00:00.000 : en:00:00:00.000
00:07:29.783 : en:00:07:29.783
00:14:55.520 : en:00:14:55.520
00:24:03.025 : en:00:24:03.025
00:32:23.817 : en:00:32:23.817
00:38:38.691 : en:00:38:38.691
00:46:28.411 : en:00:46:28.411
00:54:20.757 : en:00:54:20.757
01:03:04.155 : en:01:03:04.155
01:12:48.739 : en:01:12:48.739
01:24:08.961 : en:01:24:08.961
01:32:27.041 : en:01:32:27.041


---[Information] [19.07.2013 19:27:35] x264 [info]: frame I:985 Avg QP:18.36 size: 60277 PSNR Mean Y:45.03 U:50.09 V:52.05 Avg:46.14 Global:45.38
---[Information] [19.07.2013 19:27:35] x264 [info]: frame P:25355 Avg QP:20.83 size: 20252 PSNR Mean Y:42.84 U:48.13 V:50.42 Avg:43.95 Global:43.00
---[Information] [19.07.2013 19:27:35] x264 [info]: frame B:112267 Avg QP:22.55 size: 5895 PSNR Mean Y:42.25 U:48.55 V:51.23 Avg:43.41 Global:42.26
picpicpicpic

Этот торрент недоступен для скачивания без регистрации, однако доступен по публичной magnet-ссылке (источники с публичных трекеров). Перед использованием ссылки прочтите, пожалуйста Пользовательское соглашение, а также как можно дольше оставайтесь на раздаче! Для того, чтобы скачать сам торрент-файл (который видит больше источников), а также для того, чтобы поблагодарить релизера, вам необходимо зарегистрироваться. Если регистрироваться лень - вы можете также попробовать скачать релиз по нашим партнерским ссылкам ниже.

[underverse.su].t29364.torrent
Трекер: Зарегистрирован   [ 20.07.2013 10:56 ]  

Статус: проверено (by Чертёнок at 20.07.2013 11:05)
Поблагодарили: пока никто не поблагодарил...
Тип торрента: публичный - доступные источники с открытых трекеров: 
Размер: 1,28 GB (занимает 0,29 DVDR, для записи нужно 1 болванка DVDR/RW)
 
 
Похожие темы
Форум Тема Автор Торрент Отв. Посл. сооб.
Зарубежное кино [DVDRip, Low-Res HDRip, и т.д.] Слабые проблески / Rushlights (Энтони Стац / Antoni Stutz) [2013 г., триллер, мелодрама, криминал, HDRip] DVO ("Пираты") 90ytr90
1 | 0

0 | 616

5

23.07.2013 16:42

* Зарубежное кино [DVDRip, Low-Res HDRip, и т.д.] Слабые проблески / Rushlights (Энтони Стац / Antoni Stutz) [2013 г., триллер, мелодрама, криминал, HDRip-AVC] DVO ("Пираты") + Original 90ytr90

0 | 325

23.07.2013 16:55



Последний раз редактировалось: Чертёнок (23.07.2013 16:46), всего редактировалось 1 раз

Яндекс.Метрика powered by Sphinx


В Н И М А Н И Е
Сайт не распространяет и не хранит электронные версии произведений, а лишь бесплатно и без коммерческой выгоды (не требуя взамен платы,
SMS и т.д.) предоставляет доступ к создаваемому пользователями каталогу ссылок на торрент-файлы, которые содержат только списки хеш-сумм.
Убедительная просьба с жалобами обращаться напрямую к пользователю, разместившему торрент файл.

Вверх