Loading...
Error

Макс Пэйн / Max Payne (Джон Мур) [2008 г., боевик, триллер, драма, криминал, детектив, BDRip] [UNRATED] AVO (Данис Нурмухаметов) + Original Eng

Статистика раздачи
Размер:  2,18 GB   |    Зарегистрирован:  4 года 1 месяц   |    Скачан:  11 раз

Полного источника не было: 2 года 11 месяцев

Сидов:  0  |  0 KB/s  ]   Личеров:  0  |  0 KB/s  ]

* - сиды/пиры с внешних источников

   
 
Автор Сообщение

danis785 Пол:Муж

19-Июл-2013 18:32

Макс Пэйн / Max Payne


Год выпуска: 2008
Жанр: боевик, триллер, драма, криминал, детектив
Страна: Канада , США
Режиссер: Джон Мур
В ролях: Марк Уолберг, Мила Кунис, Бо Бриджес, Лудакрис, Крис О’Доннелл, Донал Лог, Амори Ноласко, Кейт Бёртон, Ольга Куриленко, Ротафорд Грэй
Сюжет фильма:
Сотруднику Управления по борьбе с наркотиками не на что жаловаться. У него есть все: отличная работа, любящая жена и маленький ребенок. Словом, не жизнь, а американская мечта, которая однажды оборачивается самым страшным кошмаром: какой-то психопат убивает его семью.

Отныне у Макса только одна цель — отомстить. Но месть осложняется тем, что его несправедливо обвиняют в убийстве, и все, кому не лень, начинают на него охоту — Полицейское управление Нью-Йорка, уголовный мир и городские власти. Теперь ему уже действительно нечего терять и нечего опасаться. При такой отчаянной решимости только Макс Пэйн способен пролить свет на все тайны, связанные с уничтожением его семьи, и главное, получить удовлетворение от мести, которой он так жаждет.

  • Мировая премьера: 13 октября 2008
  • Российская премьера: 23 октября 2008, «Двадцатый Век Фокс СНГ»


Качество видео: BDRip

Продолжительность: 01:42:58
Формат: AVI
Видео: XviD, 720x304, 2120 kbps
Аудио #1: русский, одноголосый закадровый [авторский], AC3 5.1, 448 kbps [Данис Нурмухаметов]
Аудио #2: английский, оригинальная дорожка , AC3 5.1, 448 kbps [English]
Субтитры: тип: русские (Данис Нурмухаметов), формат: SRT
Семпл: http://yadi.sk/d/e2lZSCwD6ms26

Код:

Общее
Полное имя                               : E:\Maks.Pein.2008.BDRip.UNRATED.VO.Nurmukhametov.avi
Формат                                   : AVI
Формат/Информация                        : Audio Video Interleave
Профиль формата                          : OpenDML
Размер файла                             : 2,18 Гбайт
Продолжительность                        : 1 ч. 42 м.
Общий поток                              : 3034 Кбит/сек
Название фильма                          : Макс Пэйн / Max Payne [Unrated] (2008) BDRip
Режиссёр                                 : HELLRAiSER (BDRip 1080)
Программа кодирования                    : VirtualDubMod 1.5.10.2 (build 2540/release)
Библиотека кодирования                   : VirtualDubMod build 2540/release
Правообладатель                          : www.friends-club.info
Примечание                               : 24.01.2009

Видео
Идентификатор                            : 0
Формат                                   : MPEG-4 Visual
Профиль формата                          : Advanced Simple@L5
Параметр BVOP формата                    : 1
Параметр QPel формата                    : Нет
Параметр GMC формата                     : Без точки перехода
Параметр матрицы формата                 : Default (MPEG)
Идентификатор кодека                     : XVID
Идентификатор кодека/Подсказка           : XviD
Продолжительность                        : 1 ч. 42 м.
Битрейт                                  : 2120 Кбит/сек
Ширина                                   : 720 пикселей
Высота                                   : 304 пикселя
Соотношение сторон                       : 16:9
Соотношение сторон в оригинале           : 2,35:1
Частота кадров                           : 23,976 кадра/сек
Цветовое пространство                    : YUV
Субдискретизация насыщенности            : 4:2:0
Битовая глубина                          : 8 бит
Тип развёртки                            : Прогрессивная
Метод сжатия                             : С потерями
Бит/(Пиксели*Кадры)                      : 0.404
Размер потока                            : 1,53 Гбайт (70%)
Библиотека кодирования                   : XviD 1.1.2 (UTC 2006-11-01)

Аудио #1
Идентификатор                            : 1
Формат                                   : AC-3
Формат/Информация                        : Audio Coding 3
Расширение режима                        : CM (complete main)
Параметр Endianness формата              : Big
Идентификатор кодека                     : 2000
Продолжительность                        : 1 ч. 42 м.
Вид битрейта                             : Постоянный
Битрейт                                  : 448 Кбит/сек
Каналы                                   : 6 каналов
Расположение каналов                     : Front: L C R, Side: L R, LFE
Частота                                  : 48,0 КГц
Битовая глубина                          : 16 бит
Метод сжатия                             : С потерями
Размер потока                            : 330 Мбайт (15%)
Выравнивание                             : Разделение по промежуткам
Продолжительность промежутка             : 42  мс. (1,00 видеокадр)
Время предзагрузки промежутка            : 500  мс.

Аудио #2
Идентификатор                            : 2
Формат                                   : AC-3
Формат/Информация                        : Audio Coding 3
Расширение режима                        : CM (complete main)
Параметр Endianness формата              : Big
Идентификатор кодека                     : 2000
Продолжительность                        : 1 ч. 42 м.
Вид битрейта                             : Постоянный
Битрейт                                  : 448 Кбит/сек
Каналы                                   : 6 каналов
Расположение каналов                     : Front: L C R, Side: L R, LFE
Частота                                  : 48,0 КГц
Битовая глубина                          : 16 бит
Метод сжатия                             : С потерями
Размер потока                            : 330 Мбайт (15%)
Выравнивание                             : Разделение по промежуткам
Продолжительность промежутка             : 42  мс. (1,00 видеокадр)
Время предзагрузки промежутка            : 500  мс.
picpicpicpic
Для увеличения картинки щелкните мышкой по превью

Этот торрент недоступен для скачивания без регистрации, однако доступен по публичной magnet-ссылке (источники с публичных трекеров). Перед использованием ссылки прочтите, пожалуйста Пользовательское соглашение, а также как можно дольше оставайтесь на раздаче! Для того, чтобы скачать сам торрент-файл (который видит больше источников), а также для того, чтобы поблагодарить релизера, вам необходимо зарегистрироваться. Если регистрироваться лень - вы можете также попробовать скачать релиз по нашим партнерским ссылкам ниже.

[underverse.su].t29354.torrent
Трекер: Зарегистрирован   [ 19.07.2013 18:32 ]  

Статус: проверено (by Чертёнок at 19.07.2013 18:49)
Поблагодарили: 2 человека
Тип торрента: публичный - доступные источники с открытых трекеров: 
Размер: 2,18 GB (занимает 1/2 DVDR, для записи нужно 1 болванка DVDR/RW)
 
 
Похожие темы
Форум Тема Автор Торрент Отв. Посл. сооб.
Зарубежное кино HQ Макс Пэйн / Макс Пейн / Max Payne (Джон Мур) [2008 г., боевик, триллер, драма, криминал, BDRip] Паукан
0 | 0

6 | 2562

10

03.10.2010 07:41

Архив Макс Пэйн / Max Payne (Джон Мур) [2008 г., боевик, триллер, драма, криминальный, DVDRip] spinel2006
0 | 0

2 | 899

2

05.11.2011 14:44

* Архив Макс Пэйн / Max Payne (Джон Мур) [2008 г., боевик, триллер, драма, криминал, DVDRip] zubroma

3 | 968

29.08.2010 23:52

Чертёнок Пол:Муж

19-Июл-2013 18:56

Послушал озвучку.

danis785 Пол:Муж

20-Июл-2013 04:41

Чертёнок
Спасибо! Стараюсь) Но здесь я записывался на старом оборудовании, теперь буду писаться на новом)

Яндекс.Метрика powered by Sphinx


В Н И М А Н И Е
Сайт не распространяет и не хранит электронные версии произведений, а лишь бесплатно и без коммерческой выгоды (не требуя взамен платы,
SMS и т.д.) предоставляет доступ к создаваемому пользователями каталогу ссылок на торрент-файлы, которые содержат только списки хеш-сумм.
Убедительная просьба с жалобами обращаться напрямую к пользователю, разместившему торрент файл.

Вверх